What Will People Say 2017 1080p WEBRip x Torrent Free Download

Seeders : 720   &   Leechers : 648      15-09-2018 (2 months)
What Will People Say 2017 1080p WEBRip x Torrent Download
Added: ago by noriegaRJ ***** in Movies   2.1 GB   Hits : 82
Info Hash: 9A95D1035E916935E48BFD22029A06E780AA2155 Download
What Will People Say 2017 1080p WEBRip x Torrent Download

Anonymous and Direct Download movies , software , shows...

Fast Safe Anonymous
movies, software, shows...
What Will People Say
Drama   .   106 min   7.6/10
Director : Iram Haq  
Writer: Iram Haq  
Tags: What  Will  People  Say  2017  1080p  

Released:
13 Jul 2018
Sixteen year-old Nisha lives a double life. At home with her family she is the perfect Pakistani daughter, but when out with her friends, she is a normal Norwegian teenager. When her father...

Torrent Description



Release: What.Will.People.Say.2017.1080p.WEBRip.x264.AC3.HORiZON-ArtSubs



IMDB: http://www.imdb.com/title/tt7213936

Subtitles: English and Norwegian.

Plot: Sixteen year-old Nisha lives a double life. At home with her family she is the perfect Pakistani daughter, but when out with her friends, she is a normal Norwegian teenager. When her father catches her in bed with her boyfriend, Nisha's two worlds brutally collide. To set an example, Nisha's parents decide to kidnap her and place her with relatives in Pakistan. Here, in a country she has never been to before, Nisha is forced to adapt to her parents' culture.


General
Complete name : What.Will.People.Say.2017.1080p.WEBRip.x264.AC3.HORiZON-ArtSubs
Format : Matroska
Format version : Version 4 / Version 2
File size : 2.05 GiB
Duration : 1h 46mn
Overall bit rate : 2 751 Kbps
Encoded date : UTC 2018-09-13T20:00:38Z
Writing application : HandBrake 1.0.7 2017040900
Writing library : Lavf57.7.2

Video
ID : 1
Format : AVC
Format/Info : Advanced Video Codec
Format profile : [email protected]
Format settings, CABAC : Yes
Format settings, ReFrames : 5 frames
Codec ID : V_MPEG4/ISO/AVC
Duration : 1h 46mn
Bit rate : 2 300 Kbps
Width : 1 920 pixels
Height : 802 pixels
Display aspect ratio : 2.40:1
Frame rate mode : Constant
Frame rate : 24.000 fps
Color space : YUV
Chroma subsampling : 4:2:0
Bit depth : 8 bits
Scan type : Progressive
Bits/(Pixel*Frame) : 0.062
Stream size : 1.68 GiB (82%)
Writing library : x264 core 148 r2708 86b7198
Encoding settings : cabac=1 / ref=5 / deblock=1:-2:-2 / analyse=0x3:0x133 / me=umh / subme=9 / psy=1 / psy_rd=1.00:0.25 / mixed_ref=1 / me_range=16 / chroma_me=1 / trellis=2 / 8x8dct=1 / cqm=0 / deadzone=6,6 / fast_pskip=1 / chroma_qp_offset=-4 / threads=9 / lookahead_threads=1 / sliced_threads=0 / nr=0 / decimate=0 / interlaced=0 / bluray_compat=0 / constrained_intra=0 / bframes=3 / b_pyramid=2 / b_adapt=2 / b_bias=0 / direct=3 / weightb=1 / open_gop=0 / weightp=2 / keyint=240 / keyint_min=24 / scenecut=40 / intra_refresh=0 / rc_lookahead=60 / rc=2pass / mbtree=1 / bitrate=2300 / ratetol=1.0 / qcomp=0.80 / qpmin=0 / qpmax=69 / qpstep=4 / cplxblur=20.0 / qblur=0.5 / vbv_maxrate=62500 / vbv_bufsize=78125 / nal_hrd=none / filler=0 / ip_ratio=1.10 / aq=1:0.50
Default : Yes
Forced : No

Audio
ID : 2
Format : AC-3
Format/Info : Audio Coding 3
Mode extension : CM (complete main)
Format settings, Endianness : Big
Codec ID : A_AC3
Duration : 1h 46mn
Bit rate mode : Constant
Bit rate : 448 Kbps
Channel count : 6 channels
Channel positions : Front: L C R, Side: L R, LFE
Sampling rate : 48.0 KHz
Bit depth : 16 bits
Compression mode : Lossy
Delay relative to video : -5ms
Stream size : 342 MiB (16%)
Title : Surround
Language : Norwegian
Default : Yes
Forced : No

Text #1
ID : 3
Format : ASS
Codec ID : S_TEXT/ASS
Codec ID/Info : Advanced Sub Station Alpha
Compression mode : Lossless
Language : Norwegian
Default : No
Forced : No

Text #2
ID : 4
Format : ASS
Codec ID : S_TEXT/ASS
Codec ID/Info : Advanced Sub Station Alpha
Compression mode : Lossless
Language : English
Default : No
Forced : No


SCREENSHOTS:







Sharing Widget


No Comments For This Torrent . Be The First to Comment

You must Login to Comment . Click Here to Login

Menu 1

Some content in menu 1.

What Will People Say 2017 1080p WEBRip x264 AC3 HORiZON-ArtSubs (Size: 2.1 GB)
  What Will People Say 2017 1080p WEBRip x264 AC3 HORiZON-ArtSubs 2.1 GB
tracker name
udp://tracker.leechers-paradise.org:6969/announce
udp://zer0day.ch:1337/announce
udp://open.demonii.com:1337/announce
udp://tracker.coppersurfer.tk:6969/announce
udp://exodus.desync.com:6969/announce
µTorrent compatible trackers list

Relative Torrents

Torrent Name Size Age SEED LEECH
Happy End (2017) (1080p BluRay x265 HEVC10bit AAC 5 1 French Tigole) [QxR]
Posted by    QxR   in   Movies
4.9 GB 4 minutes 466 961
The Big Bang Theory S12E09 720p HDTV x26 [209MB] [MP4]
Posted by    TorrentCouch   in   TV
205.2 MB 8 minutes 810 706
Dark Heart S01E06 WEBRip x264-ION10
Posted by    Trige   in   TV
447.5 MB 13 minutes 749 526
Greenleaf S03E12 Day Of Reckoning 1080p EB-DL DD5 1 H264-BTN
Posted by    Trige   in   TV
1.7 GB 13 minutes 278 192
Grand Piano 2013 1080p BluRay H264 AAC
Posted by    Trige   in   Movies
1.7 GB 16 minutes 53 625