U TURN (2018) Telugu (Org Ver) Proper Tr Torrent Free Download

Seeders : 774   &   Leechers : 234      12-10-2018 (3 days)
U TURN (2018) Telugu (Org Ver) Proper Tr Torrent Download
Added: ago by ictv ***** in Movies   1.3 GB   Hits : 26
Info Hash: 1971BC1FEC485B682109814960FA70DD4F6A0489 Download
U TURN (2018) Telugu (Org Ver) Proper Tr Torrent Download

Anonymous and Direct Download movies , software , shows...

Fast Safe Anonymous
movies, software, shows...
U Turn
Crime /Drama /Thriller  .   125 min   6.8/10
Director : Oliver Stone  
Tags: U  TURN  (2018)  Telugu  (Org  Ver)  

Released:
03 Oct 1997
When Bobby's car breaks down in the desert while on the run from some of the bookies who have already taken two of his fingers, he becomes trapped in the nearby small town where the people are stranger than anyone he's encountered. After becoming involved with a (u.... See More nbeknownst to him) young married woman, her husband hires Bobby to kill her. Later, she hires Bobby to kill the husband.

Torrent Description



Our Site http://movcr.cc

U TURN (2018) Telugu (Org Ver) Proper True HQ HDRip - 720p - x264 - 5.1 - 1.3GB - [Movcr]



http://www.imdb.com/title/tt8733898/



General
Unique ID : 246304504480326829051384625636976478763 (0xB94C85A5D46EB2226DF759C2EA89CA2B)
Complete name : [www.MovCr.cc] - U TURN (2018) Telugu (Org Ver) Proper True HQ HDRip - 720p - x264 - 5.1 - 1.3GB - [Movcr]\www.MovCr.cc - U TURN (2018) Telugu (Org Ver) Proper True HQ HDRip - 720p - x264 - 5.1 - 1.3GB - [Movcr].mkv
Format : Matroska
Format version : Version 4 / Version 2
File size : 1.29 GiB
Duration : 2 h 6 min
Overall bit rate : 1 456 kb/s
Movie name : www.MovCr.cc
Encoded date : UTC 2018-10-12 15:07:49
Writing application : mkvmerge v26.0.0 ('In The Game') 64-bit
Writing library : libebml v1.3.6 + libmatroska v1.4.9

Video
ID : 1
Format : AVC
Format/Info : Advanced Video Codec
Format profile : [email protected]
Format settings : CABAC / 4 Ref Frames
Format settings, CABAC : Yes
Format settings, RefFrames : 4 frames
Codec ID : V_MPEG4/ISO/AVC
Duration : 2 h 6 min
Bit rate : 1 326 kb/s
Width : 1 280 pixels
Height : 544 pixels
Display aspect ratio : 2.35:1
Frame rate mode : Constant
Frame rate : 24.133 FPS
Color space : YUV
Chroma subsampling : 4:2:0
Bit depth : 8 bits
Scan type : Progressive
Bits/(Pixel*Frame) : 0.079
Stream size : 1.17 GiB (91%)
Title : www.MovCr.cc
Writing library : x264 core 155 r2901 7d0ff22
Encoding settings : cabac=1 / ref=3 / deblock=1:0:0 / analyse=0x3:0x113 / me=hex / subme=7 / psy=1 / psy_rd=1.00:0.00 / mixed_ref=1 / me_range=16 / chroma_me=1 / trellis=1 / 8x8dct=1 / cqm=0 / deadzone=21,11 / fast_pskip=1 / chroma_qp_offset=-2 / threads=17 / lookahead_threads=2 / sliced_threads=0 / nr=0 / decimate=1 / interlaced=0 / bluray_compat=0 / constrained_intra=0 / bframes=3 / b_pyramid=2 / b_adapt=1 / b_bias=0 / direct=1 / weightb=1 / open_gop=0 / weightp=2 / keyint=241 / keyint_min=24 / scenecut=40 / intra_refresh=0 / rc_lookahead=40 / rc=2pass / mbtree=1 / bitrate=1326 / ratetol=1.0 / qcomp=0.60 / qpmin=0 / qpmax=69 / qpstep=4 / cplxblur=20.0 / qblur=0.5 / ip_ratio=1.40 / aq=1:1.00
Language : Telugu
Default : Yes
Forced : No

Audio
ID : 2
Format : AC-3
Format/Info : Audio Coding 3
Codec ID : A_AC3
Duration : 2 h 6 min
Bit rate mode : Constant
Bit rate : 128 kb/s
Channel(s) : 6 channels
Channel positions : Front: L C R, Side: L R, LFE
Sampling rate : 44.1 kHz
Frame rate : 28.711 FPS (1536 SPF)
Bit depth : 16 bits
Compression mode : Lossy
Stream size : 116 MiB (9%)
Title : www.MovCr.cc
Language : Telugu
Service kind : Complete Main
Default : Yes
Forced : No













Sharing Widget


No Comments For This Torrent . Be The First to Comment

You must Login to Comment . Click Here to Login

Menu 1

Some content in menu 1.

U TURN (2018) Telugu (Org Ver) Proper True HQ HDRip - 720p - x264 - 5 (Size: 1.3 GB)
  U TURN (2018) Telugu (Org Ver) Proper True HQ HDRip - 720p - x264 - 5 1.3 GB
tracker name
udp://tracker.leechers-paradise.org:6969/announce
udp://zer0day.ch:1337/announce
udp://open.demonii.com:1337/announce
udp://tracker.coppersurfer.tk:6969/announce
udp://exodus.desync.com:6969/announce
µTorrent compatible trackers list

Relative Torrents

Torrent Name Size Age SEED LEECH
Frankie Drake Mysteries S02E04 XviD-AFG[Gx]
Posted by    mazemaze16   in   TV
460.6 MB 3 seconds 398 647
The Spy Who Dumped Me 2018 720p WEB-DL D5 1 H264-CMRG[TGx]
Posted by    mazemaze16   in   Movies
3.6 GB 3 minutes 9 225
The Spy Who Dumped Me 2018 HDRip XviD AC-EVO[TGx]
Posted by    mazemaze16   in   Movies
1.3 GB 3 minutes 361 874
The Spy Who Dumped Me 2018 720p WEB-DL D5 1 H264-CMRG[EtHD]
Posted by    EtHD   in   Movies
3.6 GB 3 minutes 57 325
The Spy Who Dumped Me 2018 1080p WEB-DL D5 1 H264-CMRG[EtHD]
Posted by    EtHD   in   Movies
4.1 GB 6 minutes 780 346