U TURN (2018) Telugu (Org Ver) Proper Tr Torrent Free Download

Seeders : 609   &   Leechers : 318      12-10-2018 (3 days)
U TURN (2018) Telugu (Org Ver) Proper Tr Torrent Download
Added: ago by ictv ***** in Movies   699.4 MB   Hits : 23
Info Hash: E5A5974A7DC62551922F2C7AAD74DB9D1C842379 Download
U TURN (2018) Telugu (Org Ver) Proper Tr Torrent Download

Anonymous and Direct Download movies , software , shows...

Fast Safe Anonymous
movies, software, shows...
U Turn
Crime /Drama /Thriller  .   125 min   6.8/10
Director : Oliver Stone  
Tags: U  TURN  (2018)  Telugu  (Org  Ver)  

Released:
03 Oct 1997
When Bobby's car breaks down in the desert while on the run from some of the bookies who have already taken two of his fingers, he becomes trapped in the nearby small town where the people are stranger than anyone he's encountered. After becoming involved with a (u.... See More nbeknownst to him) young married woman, her husband hires Bobby to kill her. Later, she hires Bobby to kill the husband.

Torrent Description



Our Site http://movcr.cc

U TURN (2018) Telugu (Org Ver) Proper True HQ HDRip - 700MB - x264 - MP3 - [MovCr]



http://www.imdb.com/title/tt8733898/



General
Unique ID : 232971964918991735894979247504259498838 (0xAF44C4B2319E0EFFBFD270B8A22B4356)
Complete name : www.MovCr.cc - U TURN (2018) Telugu (Org Ver) Proper True HQ HDRip - 700MB - x264 - MP3 - [MovCr].mkv
Format : Matroska
Format version : Version 4 / Version 2
File size : 699 MiB
Duration : 2 h 6 min
Overall bit rate mode : Variable
Overall bit rate : 772 kb/s
Movie name : www.MovCr.cc
Encoded date : UTC 2018-10-12 15:06:34
Writing application : mkvmerge v26.0.0 ('In The Game') 64-bit
Writing library : libebml v1.3.6 + libmatroska v1.4.9

Video
ID : 1
Format : AVC
Format/Info : Advanced Video Codec
Format profile : [email protected]
Format settings : CABAC / 4 Ref Frames
Format settings, CABAC : Yes
Format settings, RefFrames : 4 frames
Codec ID : V_MPEG4/ISO/AVC
Duration : 2 h 6 min
Bit rate : 676 kb/s
Width : 720 pixels
Height : 304 pixels
Display aspect ratio : 2.35:1
Frame rate mode : Constant
Frame rate : 24.133 FPS
Color space : YUV
Chroma subsampling : 4:2:0
Bit depth : 8 bits
Scan type : Progressive
Bits/(Pixel*Frame) : 0.128
Stream size : 612 MiB (88%)
Title : www.MovCr.cc
Writing library : x264 core 155 r2901 7d0ff22
Encoding settings : cabac=1 / ref=3 / deblock=1:0:0 / analyse=0x3:0x113 / me=hex / subme=7 / psy=1 / psy_rd=1.00:0.00 / mixed_ref=1 / me_range=16 / chroma_me=1 / trellis=1 / 8x8dct=1 / cqm=0 / deadzone=21,11 / fast_pskip=1 / chroma_qp_offset=-2 / threads=9 / lookahead_threads=1 / sliced_threads=0 / nr=0 / decimate=1 / interlaced=0 / bluray_compat=0 / constrained_intra=0 / bframes=3 / b_pyramid=2 / b_adapt=1 / b_bias=0 / direct=1 / weightb=1 / open_gop=0 / weightp=2 / keyint=241 / keyint_min=24 / scenecut=40 / intra_refresh=0 / rc_lookahead=40 / rc=2pass / mbtree=1 / bitrate=676 / ratetol=1.0 / qcomp=0.60 / qpmin=0 / qpmax=69 / qpstep=4 / cplxblur=20.0 / qblur=0.5 / ip_ratio=1.40 / aq=1:1.00
Language : Telugu
Default : Yes
Forced : No

Audio
ID : 2
Format : MPEG Audio
Format version : Version 1
Format profile : Layer 3
Format settings : Joint stereo / MS Stereo
Codec ID : A_MPEG/L3
Codec ID/Hint : MP3
Duration : 2 h 6 min
Bit rate mode : Variable
Bit rate : 96.0 kb/s
Channel(s) : 2 channels
Sampling rate : 44.1 kHz
Frame rate : 38.281 FPS (1152 SPF)
Compression mode : Lossy
Stream size : 85.1 MiB (12%)
Title : www.MovCr.cc
Writing library : LAME3.99r
Encoding settings : -m j -V 4 -q 3 -lowpass 15.1 --abr 96
Language : Telugu
Default : Yes
Forced : No














Sharing Widget


No Comments For This Torrent . Be The First to Comment

You must Login to Comment . Click Here to Login

Menu 1

Some content in menu 1.

U TURN (2018) Telugu (Org Ver) Proper True HQ HDRip - 700MB - x264 - M (Size: 699.4 MB)
  U TURN (2018) Telugu (Org Ver) Proper True HQ HDRip - 700MB - x264 - M 699.4 MB
tracker name
udp://tracker.leechers-paradise.org:6969/announce
udp://zer0day.ch:1337/announce
udp://open.demonii.com:1337/announce
udp://tracker.coppersurfer.tk:6969/announce
udp://exodus.desync.com:6969/announce
µTorrent compatible trackers list

Relative Torrents

Torrent Name Size Age SEED LEECH
Happy Together 2018 S01E03 iNTERNAL 720pWEB x264-BAMBOOZLE[rartv]
Posted by    Cristie   in   TV
479.4 MB 2 minutes 537 170
WWE Monday Night RAW 2018 10 15 720p HDT x264-KYR [TJET]
Posted by    EZZT   in   TV
4.1 GB 2 minutes 244 876
Modern Family S10E03 (1080p AMZN WEB-DL 265 HEVC 10bit AC3 5 1 Qman) [UTR]
Posted by    UTRCorp   in   TV
558.3 MB 2 minutes 488 662
9-1-1 S02E05 720p HDTV x264-LucidTV [ezt]
Posted by    EZTVag   in   TV
1.5 GB 2 minutes 274 323
9-1-1 S02E05 XviD-AFG[TGx]
Posted by    mazemaze16   in   TV
485.5 MB 2 minutes 844 846