The Wicked Gift (2017) 720p H264 italian Torrent Free Download

Seeders : 202   &   Leechers : 718      12-10-2018 (3 days)
The Wicked Gift (2017) 720p H264 italian Torrent Download
Added: ago by robbyrs ***** in Movies   1.8 GB   Hits : 20
Info Hash: D00D87FAF7D77ACCB2549AE6818254D6F4F5FDA2 Download
The Wicked Gift (2017) 720p H264 italian Torrent Download

Anonymous and Direct Download movies , software , shows...

Fast Safe Anonymous
movies, software, shows...
The Wicked Gift
Horror /Mystery /Thriller  .   112 min   7.7/10
Director : Roberto D'Antona  
Tags: The  Wicked  Gift  (2017)  720p  H264  

Released:
23 Nov 2017
Ethan is a young, shy and rather reserved designer who has suffered from insomnia for many years due to his terrible nightmares. Believing he has a personality disorder he decides to see a therapist to solve his problem, but it will be thanks to the help of his bes.... See More t friend and a medium that he will face a long journey, a journey that will lead him to discover that his nightmares hide a shocking truth, something darker and more sinister than he ever imagined.

Torrent Description



The Wicked Gift (2017).720p.H264.italian.Ac3-5.1.sub.NUita.eng-MIRCrew


NO FOUND ONLY ORIGINAL RELEASE



My release is always in double track audio italian and Original audio
for select it use VLC or dvd player home
not use wmp

ENGLISH SUBTITLE INSIDE

SOTTOTITOLI ITALIANI PER NON UDENTI INCLUSI

The Wicked Gift (2017)

Quality MIRCrew on HD 720p da 1,8 gb

by mircrew-releases








GENERE: Horror, Thriller
ANNO: 2017
REGIA: Roberto D'Antona
PAESE: Italia
DURATA: 112 Min



Roberto D'Antona, Annamaria Lorusso, Francesco Emulo, Kateryna Korchynska, Michael Segal, Alice Viganò, David White, Mirko D'Antona



Da anni le notti del timido Ethan (Roberto D'Antona) sono funestate da terribili incubi che gli impediscono di dormire. Afflitto da insonnia incurabile, e convinto di soffrire di disturbi della personalità, il riservato designer affida le sue inquietudini a un terapista. Ma è grazie al suggerimento di un amico e all'intervento spirituale di una medium che..................



Ethan is a young, shy and rather reserved designer who has suffered from insomnia for many years due to his terrible nightmares. Believing he has a personality disorder he decides to see a ....










General
Unique ID : 255388239703069111957635115500041409801 (0xC021FC5F47882BB2FD26A5AA30841509)
Complete name : The Wicked Gift (2017).720p.ita.sub.NUita.eng-MIRCrew\The Wicked Gift (2017).720p.ita.sub.ita.eng-MIRCrew.mkv
Format : Matroska
Format version : Version 2
File size : 1.83 GiB
Duration : 1h 51mn
Overall bit rate : 2 340 Kbps
Movie name : MIRCrew
Encoded date : UTC 2018-09-30 18:39:22
Writing application : Lavf54.63.100
Writing library : Lavf54.63.100

Video
ID : 1
Format : AVC
Format/Info : Advanced Video Codec
Format profile : [email protected]
Format settings, CABAC : Yes
Format settings, ReFrames : 2 frames
Codec ID : V_MPEG4/ISO/AVC
Duration : 1h 51mn
Bit rate : 1 900 Kbps
Width : 1 280 pixels
Height : 528 pixels
Display aspect ratio : 2.40:1
Frame rate mode : Variable
Frame rate : 24.000 fps
Color space : YUV
Chroma subsampling : 4:2:0
Bit depth : 8 bits
Scan type : Progressive
Bits/(Pixel*Frame) : 0.117
Stream size : 1.44 GiB (79%)
Writing library : x264 core 130 r2273
Encoding settings : cabac=1 / ref=2 / deblock=1:0:0 / analyse=0x1:0x131 / me=hex / subme=7 / psy=1 / psy_rd=1.00:0.00 / mixed_ref=0 / me_range=16 / chroma_me=1 / trellis=1 / 8x8dct=0 / cqm=0 / deadzone=21,11 / fast_pskip=1 / chroma_qp_offset=-2 / threads=6 / lookahead_threads=1 / sliced_threads=0 / nr=0 / decimate=1 / interlaced=0 / bluray_compat=0 / constrained_intra=0 / bframes=3 / b_pyramid=0 / b_adapt=1 / b_bias=0 / direct=3 / weightb=1 / open_gop=0 / weightp=2 / keyint=240 / keyint_min=24 / scenecut=40 / intra_refresh=0 / rc_lookahead=40 / rc=abr / mbtree=1 / bitrate=1900 / ratetol=1.0 / qcomp=0.60 / qpmin=10 / qpmax=69 / qpstep=4 / vbv_maxrate=24000 / vbv_bufsize=24000 / nal_hrd=none / ip_ratio=1.40 / aq=1:1.00
Language : Italian
Default : Yes
Forced : No
DURATION : 01:51:55.792000000
NUMBER_OF_FRAMES : 161179
NUMBER_OF_BYTES : 4673748034
_STATISTICS_WRITING_APP : mkvmerge v9.7.1 ('Pandemonium') 64bit
_STATISTICS_WRITING_DATE_UTC : 2018-09-09 11:46:56
_STATISTICS_TAGS : BPS DURATION NUMBER_OF_FRAMES NUMBER_OF_BYTES

Audio
ID : 2
Format : AC-3
Format/Info : Audio Coding 3
Mode extension : CM (complete main)
Codec ID : A_AC3
Duration : 1h 51mn
Bit rate mode : Constant
Bit rate : 448 Kbps
Channel(s) : 6 channels
Channel positions : Front: L C R, Side: L R, LFE
Sampling rate : 48.0 KHz
Bit depth : 16 bits
Compression mode : Lossy
Delay relative to video : 1mn 5s
Stream size : 359 MiB (19%)
Language : Italian
Default : No
Forced : No
DURATION : 01:51:55.968000000
NUMBER_OF_FRAMES : 209874
NUMBER_OF_BYTES : 537277440
_STATISTICS_WRITING_APP : mkvmerge v9.7.1 ('Pandemonium') 64bit
_STATISTICS_WRITING_DATE_UTC : 2018-09-09 11:46:56
_STATISTICS_TAGS : BPS DURATION NUMBER_OF_FRAMES NUMBER_OF_BYTES

Menu
00:00:00.000 : :(01)00:00:00:000
00:08:50.458 : :(02)00:08:50:458
00:16:12.125 : :(03)00:16:12:125
00:22:13.583 : :(04)00:22:13:583
00:28:19.083 : :(05)00:28:19:083
00:34:12.416 : :(06)00:34:12:416
00:45:57.666 : :(07)00:45:57:666
00:58:23.583 : :(08)00:58:23:583
01:08:17.833 : :(09)01:08:17:833
01:20:04.958 : :(10)01:20:04:958
01:35:39.000 : :(11)01:35:39:000
01:42:47.458 : :(12)01:42:47:458









Sharing Widget


No Comments For This Torrent . Be The First to Comment

You must Login to Comment . Click Here to Login

Menu 1

Some content in menu 1.

The Wicked Gift (2017) 720p H264 italian Ac3-5 1 sub NUita eng-MIRCrew (Size: 1.8 GB)
  The Wicked Gift (2017) 720p H264 italian Ac3-5 1 sub NUita eng-MIRCrew 1.8 GB
tracker name
udp://tracker.leechers-paradise.org:6969/announce
udp://zer0day.ch:1337/announce
udp://open.demonii.com:1337/announce
udp://tracker.coppersurfer.tk:6969/announce
udp://exodus.desync.com:6969/announce
µTorrent compatible trackers list

Relative Torrents

Torrent Name Size Age SEED LEECH
9-1-1 S02E05 HDTV x264-LucidTV [eztv]
Posted by    EZTVag   in   TV
353.0 MB 4 minutes 912 950
Kidding S01E06 (1080p AMZN WEB-DL x265 HVC 10bit AC3 5 1 Qman) [UTR]
Posted by    UTRCorp   in   TV
1.2 GB 4 minutes 517 115
Happy Together 2018 S01E03 iNTERNAL 720pWEB x264-BAMBOOZLE[rartv]
Posted by    Cristie   in   TV
479.4 MB 9 minutes 537 170
WWE Monday Night RAW 2018 10 15 720p HDT x264-KYR [TJET]
Posted by    EZZT   in   TV
4.1 GB 9 minutes 244 876
Modern Family S10E03 (1080p AMZN WEB-DL 265 HEVC 10bit AC3 5 1 Qman) [UTR]
Posted by    UTRCorp   in   TV
558.3 MB 9 minutes 488 662