The Resident (2017) S02E02 (1080p AMZN W Torrent Free Download

Seeders : 694   &   Leechers : 944      03-10-2018 (2 weeks)
The Resident (2017) S02E02 (1080p AMZN W Torrent Download
Added: ago by Vyndros ***** in TV   984.4 MB   Hits : 26
Info Hash: 1867FB789A500E308C77CF5458300D92376FEFB4 Download
The Resident (2017) S02E02 (1080p AMZN W Torrent Download

Anonymous and Direct Download movies , software , shows...

Fast Safe Anonymous
movies, software, shows...
The Resident
Drama /Horror /Mystery  .   91 min   5.3/10
Director : Antti Jokinen  
Writer: Antti Jokinen  Robert Orr  
Tags: The  Resident  (2017)  S02E02  (1080p  AMZN  

Released:
11 Mar 2011
In New York, Dr. Juliet Bliss Devereau of the Brooklyn General Hospital has ended her relationship with her boyfriend Jack and is seeking an apartment in Brooklyn to live alone. She finds a bargain in an old apartment building owned by the handsome and lonely Max a.... See More nd one night she misinterprets his signals and dates him. However she concludes that it is too soon to have a love affair... but is that really the end of it?

Torrent Description








Media Information

Code:

General
Format : Matroska
Format version : Version 4 / Version 2
File size : 984 MiB
Duration : 44 min 52 s
Overall bit rate : 3 067 kb/s
Encoded date : UTC 2018-10-03 04:12:59
Writing application : mkvmerge v20.0.0 ('I Am The Sun') 64-bit
Writing library : libebml v1.3.5 + libmatroska v1.4.8
Writing frontend : StaxRip v1.7.0.6

Video
ID : 1
Format : HEVC
Format/Info : High Efficiency Video Coding
Format profile : Main [email protected]@Main
Codec ID : V_MPEGH/ISO/HEVC
Duration : 44 min 52 s
Bit rate : 2 617 kb/s
Width : 1 920 pixels
Height : 1 080 pixels
Display aspect ratio : 16:9
Frame rate mode : Constant
Frame rate : 23.976 (24000/1001) FPS
Color space : YUV
Chroma subsampling : 4:2:0
Bit depth : 10 bits
Bits/(Pixel*Frame) : 0.053
Stream size : 840 MiB (85%)
Writing library : x265 2.8+57-eea92165b035:[Windows][GCC 7.3.0][64 bit] 10bit
Encoding settings : cpuid=1111039 / frame-threads=3 / numa-pools=12 / wpp / no-pmode / no-pme / no-psnr / ssim / log-level=2 / input-csp=1 / input-res=1920x1080 / interlace=0 / total-frames=64549 / level-idc=0 / high-tier=1 / uhd-bd=0 / ref=3 / no-allow-non-conformance / no-repeat-headers / annexb / no-aud / no-hrd / info / hash=0 / no-temporal-layers / open-gop / min-keyint=23 / keyint=250 / gop-lookahead=0 / bframes=8 / b-adapt=2 / b-pyramid / bframe-bias=0 / rc-lookahead=50 / lookahead-slices=6 / scenecut=40 / radl=0 / no-intra-refresh / ctu=64 / min-cu-size=8 / no-rect / no-amp / max-tu-size=32 / tu-inter-depth=1 / tu-intra-depth=1 / limit-tu=0 / rdoq-level=0 / dynamic-rd=0.00 / no-ssim-rd / signhide / no-tskip / nr-intra=0 / nr-inter=0 / no-constrained-intra / no-strong-intra-smoothing / max-merge=3 / limit-refs=3 / no-limit-modes / me=3 / subme=3 / merange=57 / temporal-mvp / weightp / no-weightb / no-analyze-src-pics / deblock=0:0 / sao / no-sao-non-deblock / rd=3 / no-early-skip / no-rskip / no-fast-intra / no-tskip-fast / no-cu-lossless / no-b-intra / no-splitrd-skip / rdpenalty=0 / psy-rd=2.00 / psy-rdoq=0.00 / no-rd-refine / no-lossless / cbqpoffs=0 / crqpoffs=0 / rc=crf / crf=20.0 / qcomp=0.60 / qpstep=4 / stats-write=0 / stats-read=0 / ipratio=1.40 / pbratio=1.30 / aq-mode=3 / aq-strength=0.80 / cutree / zone-count=0 / no-strict-cbr / qg-size=32 / no-rc-grain / qpmax=69 / qpmin=0 / no-const-vbv / sar=0 / overscan=0 / videoformat=5 / range=0 / colorprim=2 / transfer=2 / colormatrix=2 / chromaloc=0 / display-window=0 / max-cll=0,0 / min-luma=0 / max-luma=1023 / log2-max-poc-lsb=8 / vui-timing-info / vui-hrd-info / slices=1 / no-opt-qp-pps / no-opt-ref-list-length-pps / no-multi-pass-opt-rps / scenecut-bias=0.05 / no-opt-cu-delta-qp / no-aq-motion / no-hdr / no-hdr-opt / no-dhdr10-opt / no-idr-recovery-sei / analysis-reuse-level=5 / scale-factor=0 / refine-intra=0 / refine-inter=0 / refine-mv=0 / no-limit-sao / ctu-info=0 / no-lowpass-dct / refine-mv-type=0 / copy-pic=1 / max-ausize-factor=1.0 / no-dynamic-refine / no-single-sei
Default : Yes
Forced : No

Audio
ID : 2
Format : AAC
Format/Info : Advanced Audio Codec
Format profile : LC
Codec ID : A_AAC
Duration : 44 min 52 s
Bit rate : 447 kb/s
Channel(s) : 6 channels
Channel positions : Front: L C R, Side: L R, LFE
Sampling rate : 48.0 kHz
Frame rate : 46.875 FPS (1024 spf)
Compression mode : Lossy
Stream size : 143 MiB (15%)
Language : English
Default : Yes
Forced : Yes

Subtitle #1
ID : 3
Format : UTF-8
Codec ID : S_TEXT/UTF8
Codec ID/Info : UTF-8 Plain Text
Duration : 44 min 49 s
Bit rate : 79 b/s
Count of elements : 812
Stream size : 26.0 KiB (0%)
Language : English
Default : No
Forced : No

Subtitle #2
ID : 4
Format : UTF-8
Codec ID : S_TEXT/UTF8
Codec ID/Info : UTF-8 Plain Text
Duration : 44 min 49 s
Bit rate : 83 b/s
Count of elements : 845
Stream size : 27.3 KiB (0%)
Language : English
Default : No
Forced : No



Source Information

Code:

Release:
Amazon WEB-DL





Sharing Widget


No Comments For This Torrent . Be The First to Comment

You must Login to Comment . Click Here to Login

Menu 1

Some content in menu 1.

The Resident (2017) S02E02 (1080p AMZN WEB-DL x265 HEVC 10bit AAC 5 1 (Size: 984.4 MB)
  The Resident (2017) S02E02 (1080p AMZN WEB-DL x265 HEVC 10bit AAC 5 1 984.4 MB
tracker name
udp://tracker.leechers-paradise.org:6969/announce
udp://zer0day.ch:1337/announce
udp://open.demonii.com:1337/announce
udp://tracker.coppersurfer.tk:6969/announce
udp://exodus.desync.com:6969/announce
µTorrent compatible trackers list

Relative Torrents

Torrent Name Size Age SEED LEECH
Arrow S07E02 Longbow Hunters AMZN WEBRip1080p x265 AAC 5 1 D0ct0rLew[UTR]
Posted by    D0ct0rLew   in   TV
1.5 GB 2 minutes 784 795
Mysteries of the Abandoned S03E04 Underwter Ghost Prison 720p WEBRip x264-CAFFE
Posted by    EZTVag   in   TV
1.4 GB 2 minutes 961 978
The Guest Book S02E01 XviD-AFG [eztv]
Posted by    EZTVag   in   TV
319.4 MB 2 minutes 883 774
Mayans M C S01E08 WEBRip x264-TBS[rartv]
Posted by    Cristie   in   TV
303.9 MB 2 minutes 380 891
FBI S01E05 720p HDTV x265-MiNX[TGx]
Posted by    mazemaze16   in   TV
202.1 MB 2 minutes 512 538