The Red Pill (2016) (1080p BluRay x265 H Torrent Free Download

Seeders : 326   &   Leechers : 520      08-10-2018 (2 weeks)
The Red Pill (2016) (1080p BluRay x265 H Torrent Download
Added: ago by Vyndros ***** in Movies   4.2 GB   Hits : 22
Info Hash: A5FF90533BDEC43CAE9EE4D5BBEFE8953E3CEBDC Download
The Red Pill (2016) (1080p BluRay x265 H Torrent Download

Anonymous and Direct Download movies , software , shows...

Fast Safe Anonymous
movies, software, shows...
The Red Pill
Documentary   .   108 min   8.4/10
Director : Cassie Jaye  
Writer: N/A  
Tags: The  Red  Pill  (2016)  (1080p  BluRay  

Released:
07 Mar 2017
The Red Pill chronicles filmmaker Cassie Jaye's journey following the mysterious and polarizing Men's Rights Movement. The Red Pill explores today's gender war and asks the question "what is the future of gender equality?"

Torrent Description











Media Information


Code:

General
Format                                   : Matroska
Format version                           : Version 4 / Version 2
File size                                : 4.22 GiB
Duration                                 : 1 h 57 min
Overall bit rate                         : 5 129 kb/s
Encoded date                             : UTC 2018-10-06 19:08:24
Writing application                      : mkvmerge v20.0.0 ('I Am The Sun') 64-bit
Writing library                          : libebml v1.3.5 + libmatroska v1.4.8
Writing frontend                         : StaxRip v1.7.0.6

Video
ID                                       : 1
Format                                   : HEVC
Format/Info                              : High Efficiency Video Coding
Format profile                           : Main [email protected]@Main
Codec ID                                 : V_MPEGH/ISO/HEVC
Duration                                 : 1 h 57 min
Bit rate                                 : 4 657 kb/s
Width                                    : 1 920 pixels
Height                                   : 1 080 pixels
Display aspect ratio                     : 16:9
Frame rate mode                          : Constant
Frame rate                               : 23.976 (24000/1001) FPS
Color space                              : YUV
Chroma subsampling                       : 4:2:0
Bit depth                                : 10 bits
Bits/(Pixel*Frame)                       : 0.094
Stream size                              : 3.83 GiB (91%)
Writing library                          : x265 2.8+57-eea92165b035:[Windows][GCC 7.3.0][64 bit] 10bit
Encoding settings                        : cpuid=1111039 / frame-threads=3 / numa-pools=12 / wpp / no-pmode / no-pme / no-psnr / ssim / log-level=2 / input-csp=1 / input-res=1920x1080 / interlace=0 / total-frames=169428 / level-idc=0 / high-tier=1 / uhd-bd=0 / ref=3 / no-allow-non-conformance / no-repeat-headers / annexb / no-aud / no-hrd / info / hash=0 / no-temporal-layers / open-gop / min-keyint=23 / keyint=250 / gop-lookahead=0 / bframes=8 / b-adapt=2 / b-pyramid / bframe-bias=0 / rc-lookahead=80 / lookahead-slices=6 / scenecut=40 / radl=0 / no-intra-refresh / ctu=64 / min-cu-size=8 / no-rect / no-amp / max-tu-size=32 / tu-inter-depth=1 / tu-intra-depth=1 / limit-tu=0 / rdoq-level=0 / dynamic-rd=0.00 / no-ssim-rd / signhide / no-tskip / nr-intra=0 / nr-inter=0 / no-constrained-intra / no-strong-intra-smoothing / max-merge=3 / limit-refs=3 / no-limit-modes / me=3 / subme=5 / merange=57 / temporal-mvp / weightp / no-weightb / no-analyze-src-pics / deblock=0:0 / sao / no-sao-non-deblock / rd=3 / no-early-skip / no-rskip / no-fast-intra / no-tskip-fast / no-cu-lossless / no-b-intra / no-splitrd-skip / rdpenalty=0 / psy-rd=2.00 / psy-rdoq=0.00 / no-rd-refine / no-lossless / cbqpoffs=0 / crqpoffs=0 / rc=crf / crf=18.0 / qcomp=0.60 / qpstep=4 / stats-write=0 / stats-read=0 / ipratio=1.40 / pbratio=1.30 / aq-mode=3 / aq-strength=1.00 / cutree / zone-count=0 / no-strict-cbr / qg-size=32 / no-rc-grain / qpmax=69 / qpmin=0 / no-const-vbv / sar=0 / overscan=0 / videoformat=5 / range=0 / colorprim=2 / transfer=2 / colormatrix=2 / chromaloc=0 / display-window=0 / max-cll=0,0 / min-luma=0 / max-luma=1023 / log2-max-poc-lsb=8 / vui-timing-info / vui-hrd-info / slices=1 / no-opt-qp-pps / no-opt-ref-list-length-pps / no-multi-pass-opt-rps / scenecut-bias=0.05 / no-opt-cu-delta-qp / no-aq-motion / no-hdr / no-hdr-opt / no-dhdr10-opt / no-idr-recovery-sei / analysis-reuse-level=5 / scale-factor=0 / refine-intra=0 / refine-inter=0 / refine-mv=0 / no-limit-sao / ctu-info=0 / no-lowpass-dct / refine-mv-type=0 / copy-pic=1 / max-ausize-factor=1.0 / no-dynamic-refine / no-single-sei
Default                                  : Yes
Forced                                   : No

Audio
ID                                       : 2
Format                                   : AAC
Format/Info                              : Advanced Audio Codec
Format profile                           : LC
Codec ID                                 : A_AAC
Duration                                 : 1 h 57 min
Bit rate                                 : 423 kb/s
Channel(s)                               : 6 channels
Channel positions                        : Front: L C R, Side: L R, LFE
Sampling rate                            : 48.0 kHz
Frame rate                               : 46.875 FPS (1024 spf)
Compression mode                         : Lossy
Stream size                              : 356 MiB (8%)
Language                                 : English
Default                                  : Yes
Forced                                   : Yes

Subtitle
ID                                       : 3
Format                                   : PGS
Muxing mode                              : zlib
Codec ID                                 : S_HDMV/PGS
Codec ID/Info                            : Picture based subtitle format used on BDs/HD-DVDs
Duration                                 : 1 h 57 min
Bit rate                                 : 77.1 kb/s
Count of elements                        : 4548
Stream size                              : 64.6 MiB (1%)
Language                                 : English
Default                                  : No
Forced                                   : No



Source Information


Code:

Release:
BluRay Remux





Sharing Widget


No Comments For This Torrent . Be The First to Comment

You must Login to Comment . Click Here to Login

Menu 1

Some content in menu 1.

The Red Pill (2016) (1080p BluRay x265 HEVC 10bit AAC 5 1 Vyndros) (Size: 4.2 GB)
  The Red Pill (2016) (1080p BluRay x265 HEVC 10bit AAC 5 1 Vyndros) 4.2 GB
tracker name
udp://tracker.leechers-paradise.org:6969/announce
udp://zer0day.ch:1337/announce
udp://open.demonii.com:1337/announce
udp://tracker.coppersurfer.tk:6969/announce
udp://exodus.desync.com:6969/announce
µTorrent compatible trackers list

Relative Torrents

Torrent Name Size Age SEED LEECH
Drishtikone 2018 Untouched WebDL Bengali1080p x264 - mkvCinemas
Posted by    mkvCinemas   in   Movies
2.8 GB 7 minutes 678 674
WWE Smackdown Live 2018 10 23 HDTV x264-tar[TGx]
Posted by    mazemaze16   in   TV
905.1 MB 8 minutes 981 106
Desert Flippers S03E14 Attack of the Shak REAL WEBRip x264-CAFFEiNE[TGx]
Posted by    mazemaze16   in   TV
238.8 MB 8 minutes 379 676
FBI S01E05 XviD-AFG [eztv]
Posted by    EZTVag   in   TV
385.9 MB 8 minutes 517 134
This Is Us S03E05 XviD-AFG[TGx]
Posted by    mazemaze16   in   TV
393.1 MB 8 minutes 0 218