The Angel 2018 Movies HDRip x264 5 1 MSu Torrent Free Download

Seeders : 810   &   Leechers : 878      14-09-2018 (1 week)
The Angel 2018 Movies HDRip x264 5 1 MSu Torrent Download
Added: ago by nehalpuja ***** in Movies   847.6 MB   Hits : 16
Info Hash: 9FBEC27485F0E13538CBA31F0AACBC0979F381F7 Download
The Angel 2018 Movies HDRip x264 5 1 MSu Torrent Download

Anonymous and Direct Download movies , software , shows...

Fast Safe Anonymous
movies, software, shows...
The Angel
Drama /Thriller  .   114 min   5.9/10
Director : Ariel Vromen  
Tags: The  Angel  2018  Movies  HDRip  x264  

Released:
14 Sep 2018
True story of Ashraf Marwan, who was President Nasser's son-in-law and special adviser and confidant to his successor Anwar Sadat - while simultaneously Israeli Intelligence's most precious asset of the 20th century. Based on NYT bestselling book 'The Angel: The Eg.... See More yptian Spy Who Saved Israel' by Uri Bar-Joseph.

Torrent Description



The Angel 2018 Movies HDRip x264 5.1 MSubs with Sample ☻rDX☻
===============================================================================================

SCREEN SHOTS:



or

http://iphonehosting.eu/2018/9/ipadmini/1.html

File size : 840 MiB
Duration : 1 h 54 min
Overall bit rate : 1 028 kb/s
Movie name : The Angel 2018 Movies HDRip x264 5.1 ☻rDX☻

Video
ID : 2
Format : AVC
Format/Info : Advanced Video Codec
Format profile : [email protected]
Format settings, CABAC : Yes
Format settings, ReFrames : 2 frames
Format settings, GOP : M=1, N=12
Codec ID : V_MPEG4/ISO/AVC
Duration : 1 h 54 min
Bit rate mode : Constant
Bit rate : 643 kb/s
Width : 720 pixels
Height : 384 pixels
Display aspect ratio : 1.85:1
Frame rate mode : Constant
Frame rate : 24.000 FPS
Color space : YUV
Chroma subsampling : 4:2:0
Bit depth : 8 bits
Scan type : Progressive
Bits/(Pixel*Frame) : 0.097
Stream size : 509 MiB (61%)
Title : ☻rDX☻
Default : Yes
Forced : No

Audio
ID : 1
Format : AC-3
Format/Info : Audio Coding 3
Mode extension : CM (complete main)
Format settings, Endianness : Big
Codec ID : A_AC3
Duration : 1 h 54 min
Bit rate mode : Constant
Bit rate : 384 kb/s
Channel(s) : 6 channels
Channel positions : Front: L C R, Side: L R, LFE
Sampling rate : 48.0 kHz
Frame rate : 31.250 FPS (1536 spf)
Bit depth : 16 bits
Compression mode : Lossy
Stream size : 314 MiB (37%)
Title : ☻rDX☻☻rDX☻
Default : Yes
Forced : No

Text #1
ID : 3
Format : UTF-8
Codec ID : S_TEXT/UTF8
Codec ID/Info : UTF-8 Plain Text
Title : ☻rDX☻
Language : English
Default : Yes
Forced : No

Text #2
ID : 4
Format : UTF-8
Codec ID : S_TEXT/UTF8
Codec ID/Info : UTF-8 Plain Text
Title : ☻rDX☻
Language : English
Default : No
Forced : No

Text #3
ID : 5
Format : UTF-8
Codec ID : S_TEXT/UTF8
Codec ID/Info : UTF-8 Plain Text
Title : ☻rDX☻
Language : French
Default : No
Forced : No

Text #4
ID : 6
Format : UTF-8
Codec ID : S_TEXT/UTF8
Codec ID/Info : UTF-8 Plain Text
Title : ☻rDX☻
Language : Dutch
Default : No
Forced : No

Text #5
ID : 7
Format : UTF-8
Codec ID : S_TEXT/UTF8
Codec ID/Info : UTF-8 Plain Text
Title : ☻rDX☻
Language : Italian
Default : No
Forced : No

Text #6
ID : 8
Format : UTF-8
Codec ID : S_TEXT/UTF8
Codec ID/Info : UTF-8 Plain Text
Title : ☻rDX☻
Language : Portuguese
Default : No
Forced : No

Text #7
ID : 9
Format : UTF-8
Codec ID : S_TEXT/UTF8
Codec ID/Info : UTF-8 Plain Text
Title : ☻rDX☻
Language : Polish
Default : No
Forced : No

Text #8
ID : 10
Format : UTF-8
Codec ID : S_TEXT/UTF8
Codec ID/Info : UTF-8 Plain Text
Title : ☻rDX☻
Language : Portuguese
Default : No
Forced : No

Text #9
ID : 11
Format : UTF-8
Codec ID : S_TEXT/UTF8
Codec ID/Info : UTF-8 Plain Text
Title : ☻rDX☻
Language : Swedish
Default : No
Forced : No

Text #10
ID : 12
Format : UTF-8
Codec ID : S_TEXT/UTF8
Codec ID/Info : UTF-8 Plain Text
Title : ☻rDX☻
Language : Finnish
Default : No
Forced : No

Text #11
ID : 13
Format : UTF-8
Codec ID : S_TEXT/UTF8
Codec ID/Info : UTF-8 Plain Text
Title : ☻rDX☻
Language : Norwegian
Default : No
Forced : No

Text #12
ID : 14
Format : UTF-8
Codec ID : S_TEXT/UTF8
Codec ID/Info : UTF-8 Plain Text
Title : ☻rDX☻
Language : Danish
Default : No
Forced : No

Text #13
ID : 15
Format : UTF-8
Codec ID : S_TEXT/UTF8
Codec ID/Info : UTF-8 Plain Text
Title : ☻rDX☻
Language : Spanish
Default : No
Forced : No

Text #14
ID : 16
Format : UTF-8
Codec ID : S_TEXT/UTF8
Codec ID/Info : UTF-8 Plain Text
Title : ☻rDX☻
Language : grc
Default : No
Forced : No

Text #15
ID : 17
Format : UTF-8
Codec ID : S_TEXT/UTF8
Codec ID/Info : UTF-8 Plain Text
Title : ☻rDX☻
Language : Spanish
Default : No
Forced : No

Text #16
ID : 18
Format : UTF-8
Codec ID : S_TEXT/UTF8
Codec ID/Info : UTF-8 Plain Text
Title : ☻rDX☻
Language : German
Default : No
Forced : No

http://www.imdb.com/title/tt5968274




Sharing Widget


No Comments For This Torrent . Be The First to Comment

You must Login to Comment . Click Here to Login

Menu 1

Some content in menu 1.

The Angel 2018 Movies HDRip x264 5 1 MSubs with Sample ☻rDX☻ (Size: 847.6 MB)
  The Angel 2018 Movies HDRip x264 5 1 MSubs with Sample ☻rDX☻ 847.6 MB
tracker name
udp://tracker.leechers-paradise.org:6969/announce
udp://zer0day.ch:1337/announce
udp://open.demonii.com:1337/announce
udp://tracker.coppersurfer.tk:6969/announce
udp://exodus.desync.com:6969/announce
µTorrent compatible trackers list

Relative Torrents

Torrent Name Size Age SEED LEECH
Dakar 18-CODEX
Posted by    SyMeTrYcZnY   in   Games
38.8 GB 1 minute 665 786
Bad Stepmother 2018 Movies DVDRip x264 51 with Sample ☻rDX☻
Posted by    nehalpuja   in   Movies
1,014.8 MB 1 minute 730 552
[18+] Mommy Does It Better (2018) Englis WEBRip x264 AAC 500MB
Posted by    220x   in   Movies
559.4 MB 1 minute 116 884
American Sniper 2014 (1080p)
Posted by    guiuli   in   Movies
2.4 GB 7 minutes 802 447
Bad Stepmother 2018 Movies DVDRip x264 AC with Sample ☻rDX☻
Posted by    nehalpuja   in   Movies
771.1 MB 10 minutes 413 993