Space Explorers 2018 Movies HDRip x264 A Torrent Free Download

Seeders : 398   &   Leechers : 233      12-10-2018 (3 days)
Space Explorers 2018 Movies HDRip x264 A Torrent Download
Added: ago by nehalpuja ***** in Movies   705.9 MB   Hits : 18
Info Hash: D795C03C44B0FFB6E0BBB4AD1A86D85A5AFB223C Download
Space Explorers 2018 Movies HDRip x264 A Torrent Download

Anonymous and Direct Download movies , software , shows...

Fast Safe Anonymous
movies, software, shows...
The Space Explorers
Short /Animation  .   N/A   8.6/10
Starring : Animation  
Director : Fred Ladd  
Writer: Fred Ladd  
Tags: Space  Explorers  2018  Movies  HDRip  x264  

Released:
N/A
N/A

Torrent Description



Space Explorers 2018 Movies HDRip x264 AAC with Sample ☻rDX☻
===============================================================================================

SCREEN SHOTS:



or

http://iphonehosting.eu/2018/10/purchase/1.html

File size : 695 MiB
Duration : 1 h 17 min
Overall bit rate mode : Constant
Overall bit rate : 1 251 kb/s
Movie name : Space Explorers 2018 Movies HDRip x264 AAC ☻rDX☻

Video
ID : 2
Format : AVC
Format/Info : Advanced Video Codec
Format profile : [email protected]
Format settings, CABAC : Yes
Format settings, ReFrames : 2 frames
Format settings, GOP : M=1, N=12
Codec ID : V_MPEG4/ISO/AVC
Duration : 1 h 17 min
Bit rate mode : Constant
Bit rate : 1 188 kb/s
Width : 720 pixels
Height : 400 pixels
Display aspect ratio : 16:9
Frame rate mode : Constant
Frame rate : 23.976 (24000/1001) FPS
Color space : YUV
Chroma subsampling : 4:2:0
Bit depth : 8 bits
Scan type : Progressive
Bits/(Pixel*Frame) : 0.172
Stream size : 646 MiB (93%)
Title : ☻rDX☻
Default : Yes
Forced : No

Audio
ID : 1
Format : MPEG Audio
Format version : Version 1
Format profile : Layer 3
Mode : Joint stereo
Mode extension : MS Stereo
Codec ID : A_MPEG/L3
Codec ID/Hint : MP3
Duration : 1 h 17 min
Bit rate mode : Constant
Bit rate : 64.0 kb/s
Channel(s) : 2 channels
Sampling rate : 44.1 kHz
Compression mode : Lossy
Stream size : 35.6 MiB (5%)
Title : ☻rDX☻
Default : Yes
Forced : No

http://www.imdb.com/title/tt8426808




Sharing Widget


No Comments For This Torrent . Be The First to Comment

You must Login to Comment . Click Here to Login

Menu 1

Some content in menu 1.

Space Explorers 2018 Movies HDRip x264 AAC with Sample ☻rDX☻ (Size: 705.9 MB)
  Space Explorers 2018 Movies HDRip x264 AAC with Sample ☻rDX☻ 705.9 MB
tracker name
udp://tracker.leechers-paradise.org:6969/announce
udp://zer0day.ch:1337/announce
udp://open.demonii.com:1337/announce
udp://tracker.coppersurfer.tk:6969/announce
udp://exodus.desync.com:6969/announce
µTorrent compatible trackers list

Relative Torrents

Torrent Name Size Age SEED LEECH
Frankie Drake Mysteries S02E04 1080p WEBip x264-TBS
Posted by    Trige   in   TV
1.9 GB 1 minute 757 145
The Circus S03E11 WEBRip x264-ION10
Posted by    Trige   in   TV
275.4 MB 1 minute 123 122
[Moviesjug net] WWE Monday Night Raw 08 ctober 2018 HDTV 800 MB
Posted by    Moviesjug   in   TV
779.8 MB 1 minute 653 699
WWE RAW 2018 1015 HDTV HQ x264 AAC - TeaTelly
Posted by    LatestHDM   in   TV
1.1 GB 1 minute 896 933
WWE Monday Night Raw 2018 10 15 HDTV x26-NWCHD [eztv]
Posted by    EZTVag   in   TV
1.5 GB 1 minute 424 309