Shooter (2007) BluRay 720p x264 [Dual Au Torrent Free Download

Seeders : 440   &   Leechers : 568      14-06-2018 (2 months)
Shooter (2007) BluRay 720p x264 [Dual Au Torrent Download
Added: ago by Katyayan ***** in Movies   1,011.2 MB   Hits : 30
Info Hash: DA9FD76FF0FDE8A490905D7FCAACF34754671791 Download
Shooter (2007) BluRay 720p x264 [Dual Au Torrent Download

Anonymous and Direct Download movies , software , shows...

Fast Safe Anonymous
movies, software, shows...
Shooter
Action /Crime /Drama  .   124 min   7.2/10
Director : Antoine Fuqua  
Tags: Shooter  (2007)  BluRay  720p  x264  [Dual  

Released:
23 Mar 2007
Bob Lee Swagger, one of the world's great marksmen and the son of a Congressional Medal of Honoree, is a loner living in the Rockies. He's left the military, having been hung out to dry in a secret Ethiopian mission a few years before, when he's recruited by a colo.... See More nel to help find a way that the President of the US might be assassinated in one of three cities in the next two weeks. He does his work, but the shot is fired notwithstanding and Bob Lee is quickly the fall guy: wounded and hunted by thousands, he goes to ground and, aided by two unlikely allies, searches for the truth and for those who double-crossed him. All roads lead back to Ethiopia.

Torrent Description




Shooter (2007) BluRay 720p x264 [Dual Audio] [Hindi - Eng] AAC Esub -=!Katyayan!=-






-=====================Source Credit=====================-
:::::::::::::::::::> Audio ----Hammer



Format : Matroska
Format version : Version 4 / Version 2
File size : 1 011 MiB
Duration : 2 h 5 min
Overall bit rate : 1 125 kb/s
Movie name : Shooter (2007) BluRay 720p x264 [Dual Audio] [Hindi - Eng] AAC Esub -=!Katyayan!=-
Encoded date : UTC 2018-06-13 18:17:11
Writing application : mkvmerge v19.0.0 ('Brave Captain') 32-bit
Writing library : libebml v1.3.5 + libmatroska v1.4.8
Cover : Yes
Attachments : Shooter (2007) Cover

Video
ID : 1
Format : AVC
Format/Info : Advanced Video Codec
Format profile : [email protected]
Format settings : CABAC / 8 Ref Frames
Format settings, CABAC : Yes
Format settings, RefFrames : 8 frames
Codec ID : V_MPEG4/ISO/AVC
Duration : 2 h 5 min
Bit rate : 850 kb/s
Width : 1 280 pixels
Height : 528 pixels
Display aspect ratio : 2.40:1
Frame rate mode : Constant
Frame rate : 23.976 (24000/1001) FPS
Color space : YUV
Chroma subsampling : 4:2:0
Bit depth : 8 bits
Scan type : Progressive
Bits/(Pixel*Frame) : 0.052
Stream size : 764 MiB (76%)
Title : Shooter (2007) BluRay 720p x264 [Dual Audio] [Hindi - Eng] AAC Esub -=!Katyayan!=-
Writing library : x264 core 112
Encoding settings : cabac=1 / ref=8 / deblock=1:-2:-1 / analyse=0x3:0x113 / me=umh / subme=10 / psy=1 / psy_rd=0.20:0.00 / mixed_ref=1 / me_range=16 / chroma_me=1 / trellis=2 / 8x8dct=1 / cqm=0 / deadzone=21,11 / fast_pskip=1 / chroma_qp_offset=-1 / threads=6 / sliced_threads=0 / nr=0 / decimate=1 / interlaced=0 / constrained_intra=0 / bframes=4 / b_pyramid=0 / b_adapt=2 / b_bias=0 / direct=3 / weightb=1 / open_gop=0 / weightp=2 / keyint=240 / keyint_min=23 / scenecut=40 / intra_refresh=0 / rc_lookahead=50 / rc=2pass / mbtree=1 / bitrate=850 / ratetol=1.0 / qcomp=0.60 / qpmin=3 / qpmax=51 / qpstep=4 / cplxblur=20.0 / qblur=0.5 / ip_ratio=1.40 / aq=1:1.00
Language : English
Default : Yes
Forced : No
Color range : Limited
Color primaries : BT.709
Transfer characteristics : BT.709
Matrix coefficients : BT.709

Audio #1
ID : 2
Format : AAC
Format/Info : Advanced Audio Codec
Format profile : LC
Codec ID : A_AAC-2
Duration : 2 h 5 min
Bit rate : 224 kb/s
Channel(s) : 2 channels
Channel positions : Front: L R
Sampling rate : 48.0 kHz
Frame rate : 46.875 FPS (1024 SPF)
Compression mode : Lossy
Delay relative to video : 9 ms
Stream size : 201 MiB (20%)
Title : -=!Katyayan!=-
Language : Hindi
Default : Yes
Forced : Yes

Audio #2
ID : 3
Format : AAC
Format/Info : Advanced Audio Codec
Format profile : HE-AAC / LC
Format settings : Explicit
Codec ID : A_AAC-2
Duration : 2 h 5 min
Bit rate : 48.0 kb/s
Channel(s) : 2 channels
Channel positions : Front: L R
Sampling rate : 48.0 kHz / 24.0 kHz
Frame rate : 23.438 FPS (1024 SPF)
Compression mode : Lossy
Delay relative to video : 31 ms
Stream size : 43.2 MiB (4%)
Title : -=!Katyayan!=-
Language : English
Default : No
Forced : No

Text
ID : 4
Format : UTF-8
Codec ID : S_TEXT/UTF8
Codec ID/Info : UTF-8 Plain Text
Duration : 1 h 58 min
Bit rate : 60 b/s
Count of elements : 1446
Stream size : 52.5 KiB (0%)
Title : -=!Katyayan!=-
Language : English
Default : Yes
Forced : Yes







Sharing Widget


No Comments For This Torrent . Be The First to Comment

You must Login to Comment . Click Here to Login

Menu 1

Some content in menu 1.

Shooter (2007) BluRay 720p x264 [Dual Audio] [Hindi - Eng] AAC Esub -= (Size: 1,011.2 MB)
  Shooter (2007) BluRay 720p x264 [Dual Audio] [Hindi - Eng] AAC Esub -= 1,011.2 MB
tracker name
udp://tracker.leechers-paradise.org:6969/announce
udp://zer0day.ch:1337/announce
udp://open.demonii.com:1337/announce
udp://tracker.coppersurfer.tk:6969/announce
udp://exodus.desync.com:6969/announce
µTorrent compatible trackers list

Relative Torrents

Torrent Name Size Age SEED LEECH
Frontier Feud (Western 1945) Johnny Mak Brown 720p
Posted by    BurtonC   in   Movies
971.7 MB 5 minutes 482 378
The Beechgrove Garden S40E14 540p iP WEBDL AAC2 0 H 264-SOIL[TGx]
Posted by    mazemaze16   in   TV
398.9 MB 9 minutes 805 558
Gardeners World S51E20 720p iP WEBRip AA2 0 x264-SOIL[TGx]
Posted by    mazemaze16   in   TV
1.3 GB 9 minutes 621 564
GridinSoft Anti-Malware 4 0 7 226 Multilngual Patch
Posted by    alE13   in   Applications
72.5 MB 14 minutes 869 425
Beast 2018 1080p WEB-DL DD5 1 H264-CMRG[tHD]
Posted by    EtHD   in   Movies
3.5 GB 17 minutes 711 410