S W A T (SWAT) S02E03 Fire and Smoke 10 Torrent Free Download

Seeders : 688   &   Leechers : 581      12-10-2018 (3 days)
S W A T (SWAT) S02E03 Fire and Smoke 10 Torrent Download
Added: ago by PhunPsyz ***** in TV   764.4 MB   Hits : 19
Info Hash: 92D679D3B4B7941025F8F1C23A9AA9229C5DB8A2 Download
S W A T (SWAT) S02E03 Fire and Smoke 10 Torrent Download

Anonymous and Direct Download movies , software , shows...

Fast Safe Anonymous
movies, software, shows...
Detroit S.W.A.T
Documentary   .   N/A   N/A/10
Starring : Documentary  
Director : N/A  
Writer: N/A  
Tags: S  W  A  T    (SWAT)  

Released:
01 Mar 2000
N/A

Torrent Description



www.imdb.com/title/tt8856654/?ref_=ttep_ep3

The SWAT team is enlisted by Hondo's new romantic interest, Deputy District Attorney Nia Wells, to protect the jurors of a high-profile bribery trial, after some of them are targeted by organized crime in a series of fire-bombings.

Source: Amzn







Format : MPEG-4
Format profile : Base Media / Version 2
Codec ID : mp42 (isom/iso2/avc1/mp41)
File size : 764 MiB
Duration : 41 min 51 s
Overall bit rate mode : Variable
Overall bit rate : 2 553 kb/s

Video
ID : 1
Format : AVC
Format/Info : Advanced Video Codec
Format profile : [email protected]
Format settings : CABAC / 1 Ref Frames
Format settings, CABAC : Yes
Format settings, ReFrames : 1 frame
Codec ID : avc1
Codec ID/Info : Advanced Video Coding
Duration : 41 min 51 s
Bit rate : 2 068 kb/s
Width : 1 920 pixels
Height : 1 080 pixels
Display aspect ratio : 16:9
Frame rate mode : Constant
Frame rate : 24.000 FPS
Color space : YUV
Chroma subsampling : 4:2:0
Bit depth : 8 bits
Scan type : Progressive
Bits/(Pixel*Frame) : 0.042
Stream size : 619 MiB (81%)
Writing library : x264 core 155 r2901 7d0ff22

Audio #1
ID : 2
Format : AC-3
Format/Info : Audio Coding 3
Commercial name : Dolby Digital
Codec ID : ac-3
Duration : 41 min 51 s
Bit rate mode : Constant
Bit rate : 320 kb/s
Channel(s) : 6 channels
Channel layout : L R C LFE Ls Rs
Sampling rate : 48.0 kHz
Frame rate : 31.250 FPS (1536 SPF)
Bit depth : 16 bits
Compression mode : Lossy
Stream size : 95.8 MiB (13%)
Title : Surround / Surround
Language : English

Audio #2
ID : 3
Format : AAC LC
Format/Info : Advanced Audio Codec Low Complexity
Codec ID : mp4a-40-2
Duration : 41 min 51 s
Bit rate mode : Variable
Bit rate : 159 kb/s
Channel(s) : 2 channels
Channel layout : L R
Sampling rate : 48.0 kHz
Frame rate : 46.875 FPS (1024 SPF)
Compression mode : Lossy
Stream size : 47.7 MiB (6%)
Title : Stereo / Stereo
Language : English

Text
Language : English
Default : Yes
Forced : No




Sharing Widget


No Comments For This Torrent . Be The First to Comment

You must Login to Comment . Click Here to Login

Menu 1

Some content in menu 1.

S W A T (SWAT) S02E03 Fire and Smoke 1080p 5 1 - 2 0 x264 Phun Psyz (Size: 764.4 MB)
  S W A T (SWAT) S02E03 Fire and Smoke 1080p 5 1 - 2 0 x264 Phun Psyz 764.4 MB
tracker name
udp://tracker.leechers-paradise.org:6969/announce
udp://zer0day.ch:1337/announce
udp://open.demonii.com:1337/announce
udp://tracker.coppersurfer.tk:6969/announce
udp://exodus.desync.com:6969/announce
µTorrent compatible trackers list

Relative Torrents

Torrent Name Size Age SEED LEECH
Slender Man 2018 BRRip XviD AC3-EVO[EtMoies]
Posted by    EtHD   in   Movies
1.3 GB 2 minutes 208 712
Slender Man 2018 BRRip XviD AC3-EVO
Posted by    MrStark   in   Movies
1.3 GB 2 minutes 264 288
Slender Man 2018 720p BRRip X264 AC3-EVO
Posted by    MrStark   in   Movies
2.4 GB 2 minutes 792 265
BBC Click - SpaceX journey to the Moon 70p MP4 + subs BigJ0554
Posted by    BigJ0554   in   TV
158.6 MB 4 minutes 586 338
Slender Man 2018 BRRip XviD AC3-EVO[TGx]
Posted by    mazemaze16   in   Movies
1.3 GB 8 minutes 893 446