Realms 2018 Movies HDRip x264 5 1 ESubs Torrent Free Download

Seeders : 61   &   Leechers : 689      12-10-2018 (3 days)
Realms 2018 Movies HDRip x264 5 1 ESubs Torrent Download
Added: ago by nehalpuja ***** in Movies   911.4 MB   Hits : 16
Info Hash: 1CE692B28FC589EA880FE1DD55E93096082A6A3C Download
Realms 2018 Movies HDRip x264 5 1 ESubs Torrent Download

Anonymous and Direct Download movies , software , shows...

Fast Safe Anonymous
movies, software, shows...
Realms
Short /Thriller  .   N/A   N/A/10
Director : John Pickard  Corry Raymond  
Tags: Realms  2018  Movies  HDRip  x264  5  

Released:
05 Mar 2016
N/A

Torrent Description



Realms 2018 Movies HDRip x264 5.1 ESubs with Sample ☻rDX☻
===============================================================================================

SCREEN SHOTS:



or

http://iphonehosting.eu/2018/10/realestate/1.html

File size                                : 902 MiB
Duration                                 : 1 h 30 min
Overall bit rate mode                    : Constant
Overall bit rate                         : 1 394 kb/s
Movie name                               : Realms 2018 Movies HDRip x264 5.1 ☻rDX☻

Video
ID                                       : 2
Format                                   : AVC
Format/Info                              : Advanced Video Codec
Format profile                           : [email protected]
Format settings, CABAC                   : Yes
Format settings, ReFrames                : 2 frames
Format settings, GOP                     : M=1, N=12
Codec ID                                 : V_MPEG4/ISO/AVC
Duration                                 : 1 h 30 min
Bit rate mode                            : Constant
Bit rate                                 : 1 011 kb/s
Width                                    : 720 pixels
Height                                   : 304 pixels
Display aspect ratio                     : 2.35:1
Frame rate mode                          : Constant
Frame rate                               : 23.976 FPS
Color space                              : YUV
Chroma subsampling                       : 4:2:0
Bit depth                                : 8 bits
Scan type                                : Progressive
Bits/(Pixel*Frame)                       : 0.193
Stream size                              : 636 MiB (70%)
Title                                    : ☻rDX☻
Default                                  : Yes
Forced                                   : No

Audio
ID                                       : 1
Format                                   : AC-3
Format/Info                              : Audio Coding 3
Mode extension                           : CM (complete main)
Format settings, Endianness              : Big
Codec ID                                 : A_AC3
Duration                                 : 1 h 30 min
Bit rate mode                            : Constant
Bit rate                                 : 384 kb/s
Channel(s)                               : 6 channels
Channel positions                        : Front: L C R, Side: L R, LFE
Sampling rate                            : 48.0 kHz
Frame rate                               : 31.250 FPS (1536 spf)
Bit depth                                : 16 bits
Compression mode                         : Lossy
Stream size                              : 249 MiB (28%)
Title                                    : ☻rDX☻
Default                                  : Yes
Forced                                   : No

http://www.imdb.com/title/tt1934452




Sharing Widget


No Comments For This Torrent . Be The First to Comment

You must Login to Comment . Click Here to Login

Menu 1

Some content in menu 1.

Realms 2018 Movies HDRip x264 5 1 ESubs with Sample ☻rDX☻ (Size: 911.4 MB)
  Realms 2018 Movies HDRip x264 5 1 ESubs with Sample ☻rDX☻ 911.4 MB
tracker name
udp://tracker.leechers-paradise.org:6969/announce
udp://zer0day.ch:1337/announce
udp://open.demonii.com:1337/announce
udp://tracker.coppersurfer.tk:6969/announce
udp://exodus.desync.com:6969/announce
µTorrent compatible trackers list

Relative Torrents

Torrent Name Size Age SEED LEECH
(18+) Perfect Partner (2011) HDRip x264 20p MP4
Posted by    220x   in   Movies
264.0 MB 4 minutes 264 562
Slender Man 2018 BRRip XviD AC3-EVO[EtMoies]
Posted by    EtHD   in   Movies
1.3 GB 7 minutes 208 712
Slender Man 2018 BRRip XviD AC3-EVO
Posted by    MrStark   in   Movies
1.3 GB 7 minutes 264 288
Slender Man 2018 720p BRRip X264 AC3-EVO
Posted by    MrStark   in   Movies
2.4 GB 7 minutes 792 265
BBC Click - SpaceX journey to the Moon 70p MP4 + subs BigJ0554
Posted by    BigJ0554   in   TV
158.6 MB 9 minutes 586 338