Press (2018) S01E05 (1080p AMZN WEB-DL x Torrent Free Download

Seeders : 452   &   Leechers : 872      08-10-2018 (2 weeks)
Press (2018) S01E05 (1080p AMZN WEB-DL x Torrent Download
Added: ago by Vyndros ***** in TV   984.5 MB   Hits : 25
Info Hash: 402DACA2EA7C1D4BCA510E8665B78E414BF158BB Download
Press (2018) S01E05 (1080p AMZN WEB-DL x Torrent Download

Anonymous and Direct Download movies , software , shows...

Fast Safe Anonymous
movies, software, shows...
Press
Drama /History  .   100 min   7.2/10
Director : Sedat Yilmaz  
Writer: Sedat Yilmaz  
Tags: Press  (2018)  S01E05  (1080p  AMZN  WEB-DL  

Released:
18 Mar 2011
Turkey's first Kurdish language newspaper is under siege. After exposing human rights abuses in Diyarbakır, the journalists become the target of increasingly ruthless government-sanctioned intimidation.

Torrent Description









Media Information

Code:

General
Format : Matroska
Format version : Version 4 / Version 2
File size : 985 MiB
Duration : 57 min 38 s
Overall bit rate : 2 388 kb/s
Encoded date : UTC 2018-10-05 06:17:04
Writing application : mkvmerge v20.0.0 ('I Am The Sun') 64-bit
Writing library : libebml v1.3.5 + libmatroska v1.4.8
Writing frontend : StaxRip v1.7.0.6

Video
ID : 1
Format : HEVC
Format/Info : High Efficiency Video Coding
Format profile : Main [email protected]@Main
Codec ID : V_MPEGH/ISO/HEVC
Duration : 57 min 38 s
Bit rate : 1 937 kb/s
Width : 1 920 pixels
Height : 960 pixels
Display aspect ratio : 2.000
Frame rate mode : Constant
Frame rate : 25.000 FPS
Color space : YUV
Chroma subsampling : 4:2:0
Bit depth : 10 bits
Bits/(Pixel*Frame) : 0.042
Stream size : 799 MiB (81%)
Writing library : x265 2.8+57-eea92165b035:[Windows][GCC 7.3.0][64 bit] 10bit
Encoding settings : cpuid=1111039 / frame-threads=3 / numa-pools=12 / wpp / no-pmode / no-pme / no-psnr / ssim / log-level=2 / input-csp=1 / input-res=1920x960 / interlace=0 / total-frames=86468 / level-idc=0 / high-tier=1 / uhd-bd=0 / ref=3 / no-allow-non-conformance / no-repeat-headers / annexb / no-aud / no-hrd / info / hash=0 / no-temporal-layers / open-gop / min-keyint=25 / keyint=250 / gop-lookahead=0 / bframes=8 / b-adapt=2 / b-pyramid / bframe-bias=0 / rc-lookahead=50 / lookahead-slices=6 / scenecut=40 / radl=0 / no-intra-refresh / ctu=64 / min-cu-size=8 / no-rect / no-amp / max-tu-size=32 / tu-inter-depth=1 / tu-intra-depth=1 / limit-tu=0 / rdoq-level=0 / dynamic-rd=0.00 / no-ssim-rd / signhide / no-tskip / nr-intra=0 / nr-inter=0 / no-constrained-intra / no-strong-intra-smoothing / max-merge=3 / limit-refs=3 / no-limit-modes / me=3 / subme=3 / merange=57 / temporal-mvp / weightp / no-weightb / no-analyze-src-pics / deblock=0:0 / sao / no-sao-non-deblock / rd=3 / no-early-skip / no-rskip / no-fast-intra / no-tskip-fast / no-cu-lossless / no-b-intra / no-splitrd-skip / rdpenalty=0 / psy-rd=2.00 / psy-rdoq=0.00 / no-rd-refine / no-lossless / cbqpoffs=0 / crqpoffs=0 / rc=crf / crf=20.0 / qcomp=0.60 / qpstep=4 / stats-write=0 / stats-read=0 / ipratio=1.40 / pbratio=1.30 / aq-mode=3 / aq-strength=0.80 / cutree / zone-count=0 / no-strict-cbr / qg-size=32 / no-rc-grain / qpmax=69 / qpmin=0 / no-const-vbv / sar=0 / overscan=0 / videoformat=5 / range=0 / colorprim=2 / transfer=2 / colormatrix=2 / chromaloc=0 / display-window=0 / max-cll=0,0 / min-luma=0 / max-luma=1023 / log2-max-poc-lsb=8 / vui-timing-info / vui-hrd-info / slices=1 / no-opt-qp-pps / no-opt-ref-list-length-pps / no-multi-pass-opt-rps / scenecut-bias=0.05 / no-opt-cu-delta-qp / no-aq-motion / no-hdr / no-hdr-opt / no-dhdr10-opt / no-idr-recovery-sei / analysis-reuse-level=5 / scale-factor=0 / refine-intra=0 / refine-inter=0 / refine-mv=0 / no-limit-sao / ctu-info=0 / no-lowpass-dct / refine-mv-type=0 / copy-pic=1 / max-ausize-factor=1.0 / no-dynamic-refine / no-single-sei
Default : Yes
Forced : No

Audio
ID : 2
Format : AAC
Format/Info : Advanced Audio Codec
Format profile : LC
Codec ID : A_AAC
Duration : 57 min 38 s
Bit rate : 449 kb/s
Channel(s) : 6 channels
Channel positions : Front: L C R, Side: L R, LFE
Sampling rate : 48.0 kHz
Frame rate : 46.875 FPS (1024 spf)
Compression mode : Lossy
Stream size : 185 MiB (19%)
Language : English
Default : Yes
Forced : Yes



Source Information

Code:

Release:
Amazon WEB-DL




Sharing Widget


No Comments For This Torrent . Be The First to Comment

You must Login to Comment . Click Here to Login

Menu 1

Some content in menu 1.

Press (2018) S01E05 (1080p AMZN WEB-DL x265 HEVC 10bit AAC 5 1 Vyndros (Size: 984.5 MB)
  Press (2018) S01E05 (1080p AMZN WEB-DL x265 HEVC 10bit AAC 5 1 Vyndros 984.5 MB
tracker name
udp://tracker.leechers-paradise.org:6969/announce
udp://zer0day.ch:1337/announce
udp://open.demonii.com:1337/announce
udp://tracker.coppersurfer.tk:6969/announce
udp://exodus.desync.com:6969/announce
µTorrent compatible trackers list

Relative Torrents

Torrent Name Size Age SEED LEECH
TMZ on TV 2018 10 22 480p x264-mSD [eztv
Posted by    EZTVag   in   TV
103.6 MB 1 minute 461 753
The Guest Book S02E01 XviD-AFG[TGx]
Posted by    mazemaze16   in   TV
320.9 MB 1 minute 601 171
This Is Us S03E05 720p HDTV x265-MiNX [etv]
Posted by    EZTVag   in   TV
187.3 MB 1 minute 51 694
Mayans M C S01E08 720p WEBRip x264-TBS[rrtv]
Posted by    Cristie   in   TV
1.2 GB 1 minute 141 366
This Is Us S03E05 XviD-AFG [eztv]
Posted by    EZTVag   in   TV
392.0 MB 1 minute 725 884