Pataakha (2018) Hindi HQ pDVDRip x264 AA Torrent Free Download

Seeders : 837   &   Leechers : 915      12-10-2018 (3 days)
Pataakha (2018) Hindi HQ pDVDRip x264 AA Torrent Download
Added: ago by ictv ***** in Movies   724.3 MB   Hits : 23
Info Hash: FD6BE52815C1C3262302F122154913FFA902175E Download
Pataakha (2018) Hindi HQ pDVDRip x264 AA Torrent Download

Anonymous and Direct Download movies , software , shows...

Fast Safe Anonymous
movies, software, shows...
Pataakha
Action /Comedy /Drama  .   134 min   7.8/10
Director : Vishal Bhardwaj  
Tags: Pataakha  (2018)  Hindi  HQ  pDVDRip  x264  

Released:
28 Sep 2018
Based on Charan Singh Pathik's short story Do Behnein, Pataakha narrates the story of two feuding sisters who realize the true nature of their relationship only after marriage separates them.

Torrent Description



Our Site http://Movcr.cc


Pataakha (2018) Hindi HQ pDVDRip x264 AAC 700MB - [ MovCr]



http://www.imdb.com/title/tt8396128/



General
Unique ID : 183207319004106646503516494295188371064 (0x89D4723833FEE24EE49D14E4E873F678)
Complete name : www.MovCr.cc - Pataakha (2018) Hindi HQ pDVDRip x264 AAC 700MB - [ MovCr].mkv
Format : Matroska
Format version : Version 4 / Version 2
File size : 724 MiB
Duration : 2 h 7 min
Overall bit rate : 793 kb/s
Movie name : www.MovCr.cc
Encoded date : UTC 2018-10-12 16:11:25
Writing application : mkvmerge v26.0.0 ('In The Game') 64-bit
Writing library : libebml v1.3.6 + libmatroska v1.4.9

Video
ID : 1
Format : AVC
Format/Info : Advanced Video Codec
Format profile : [email protected]
Format settings : CABAC / 4 Ref Frames
Format settings, CABAC : Yes
Format settings, RefFrames : 4 frames
Codec ID : V_MPEG4/ISO/AVC
Duration : 2 h 7 min
Bit rate : 623 kb/s
Width : 688 pixels
Height : 300 pixels
Display aspect ratio : 2.25:1
Frame rate mode : Constant
Frame rate : 25.000 FPS
Color space : YUV
Chroma subsampling : 4:2:0
Bit depth : 8 bits
Scan type : Progressive
Bits/(Pixel*Frame) : 0.121
Stream size : 576 MiB (80%)
Title : www.MovCr.cc
Writing library : x264 core 148 r2708 86b7198
Encoding settings : cabac=1 / ref=1 / deblock=1:0:0 / analyse=0x1:0x111 / me=hex / subme=2 / psy=1 / psy_rd=1.00:0.00 / mixed_ref=0 / me_range=16 / chroma_me=1 / trellis=0 / 8x8dct=0 / cqm=0 / deadzone=21,11 / fast_pskip=1 / chroma_qp_offset=0 / threads=9 / lookahead_threads=2 / sliced_threads=0 / nr=0 / decimate=1 / interlaced=0 / bluray_compat=0 / constrained_intra=0 / bframes=3 / b_pyramid=2 / b_adapt=1 / b_bias=0 / direct=1 / weightb=1 / open_gop=0 / weightp=1 / keyint=250 / keyint_min=25 / scenecut=40 / intra_refresh=0 / rc_lookahead=10 / rc=abr / mbtree=1 / bitrate=623 / ratetol=1.0 / qcomp=0.60 / qpmin=0 / qpmax=69 / qpstep=4 / vbv_maxrate=20000 / vbv_bufsize=25000 / nal_hrd=none / filler=0 / ip_ratio=1.40 / aq=1:1.00
Default : Yes
Forced : No
Color range : Limited
Color primaries : BT.601 PAL
Transfer characteristics : BT.709
Matrix coefficients : BT.601

Audio
ID : 2
Format : AAC
Format/Info : Advanced Audio Codec
Format profile : LC
Codec ID : A_AAC-2
Duration : 2 h 7 min
Bit rate : 160 kb/s
Channel(s) : 2 channels
Channel positions : Front: L R
Sampling rate : 48.0 kHz
Frame rate : 46.875 FPS (1024 SPF)
Compression mode : Lossy
Delay relative to video : -21 ms
Stream size : 146 MiB (20%)
Title : www.MovCr.cc
Language : Hindi
Default : Yes
Forced : No











Sharing Widget


No Comments For This Torrent . Be The First to Comment

You must Login to Comment . Click Here to Login

Menu 1

Some content in menu 1.

Pataakha (2018) Hindi HQ pDVDRip x264 AAC 700MB - [ MovCr] (Size: 724.3 MB)
  Pataakha (2018) Hindi HQ pDVDRip x264 AAC 700MB - [ MovCr] 724.3 MB
tracker name
udp://tracker.leechers-paradise.org:6969/announce
udp://zer0day.ch:1337/announce
udp://open.demonii.com:1337/announce
udp://tracker.coppersurfer.tk:6969/announce
udp://exodus.desync.com:6969/announce
µTorrent compatible trackers list

Relative Torrents

Torrent Name Size Age SEED LEECH
Slender Man 2018 BRRip XviD AC3-EVO[EtMoies]
Posted by    EtHD   in   Movies
1.3 GB 2 minutes 208 712
Slender Man 2018 BRRip XviD AC3-EVO
Posted by    MrStark   in   Movies
1.3 GB 2 minutes 264 288
Slender Man 2018 720p BRRip X264 AC3-EVO
Posted by    MrStark   in   Movies
2.4 GB 2 minutes 792 265
BBC Click - SpaceX journey to the Moon 70p MP4 + subs BigJ0554
Posted by    BigJ0554   in   TV
158.6 MB 4 minutes 586 338
Slender Man 2018 BRRip XviD AC3-EVO[TGx]
Posted by    mazemaze16   in   Movies
1.3 GB 8 minutes 893 446