Oceans 8 2018 720p HD-TS X264 MP3 LLG Torrent Free Download

Seeders : 225   &   Leechers : 246      13-06-2018 (1 week)
Oceans 8 2018 720p HD-TS X264 MP3 LLG Torrent Download
Added: ago by LifeLongg ***** in Movies   1.2 GB   Hits : 15
Info Hash: 716158A96938FDBC65623DC80604F29757085282 Download
Oceans 8 2018 720p HD-TS X264 MP3 LLG Torrent Download

Anonymous and Direct Download movies , software , shows...

Fast Safe Anonymous
movies, software, shows...

Torrent Description



******************************Thumbnail:**********************



******************************Screenshots:********************

Screenshot 1

Screenshot 2

Screenshot 3

Screenshot 4

Screenshot 5

Screenshot 6

Screenshot 7

Screenshot 8

Screenshot 9

Screenshot 0

**************************************************************

Complete name : Oceans.8.2018.720p.HD-TS.X264.MP3.LLG.mp4
Format : MPEG-4
Format profile : Base Media
Codec ID : isom (isom/iso2/avc1/mp41)
File size : 1.19 GiB
Duration : 1 h 43 min
Overall bit rate : 1 637 kb/s
Writing application : Lavf57.56.101

Video
ID : 1
Format : AVC
Format/Info : Advanced Video Codec
Format profile : [email protected]
Format settings : CABAC / 4 Ref Frames
Format settings, CABAC : Yes
Format settings, RefFrames : 4 frames
Codec ID : avc1
Codec ID/Info : Advanced Video Coding
Duration : 1 h 43 min
Bit rate : 1 500 kb/s
Width : 1 280 pixels
Height : 536 pixels
Display aspect ratio : 2.40:1
Frame rate mode : Constant
Frame rate : 23.976 (23976/1000) FPS
Color space : YUV
Chroma subsampling : 4:2:0
Bit depth : 8 bits
Scan type : Progressive
Bits/(Pixel*Frame) : 0.091
Stream size : 1.09 GiB (92%)


Audio
ID : 2
Format : MPEG Audio
Format version : Version 1
Format profile : Layer 3
Format settings : Joint stereo / MS Stereo
Codec ID : mp4a-6B
Duration : 1 h 43 min
Bit rate mode : Constant
Bit rate : 128 kb/s
Channel(s) : 2 channels
Sampling rate : 44.1 kHz
Compression mode : Lossy
Stream size : 94.9 MiB (8%)
Writing library : LAME3.99.5
Default : Yes
Alternate group : 1




Sharing Widget


No Comments For This Torrent . Be The First to Comment

You must Login to Comment . Click Here to Login

Menu 1

Some content in menu 1.

Oceans 8 2018 720p HD-TS X264 MP3 LLG (Size: 1.2 GB)
  Oceans 8 2018 720p HD-TS X264 MP3 LLG 1.2 GB
tracker name
udp://tracker.leechers-paradise.org:6969/announce
udp://zer0day.ch:1337/announce
udp://open.demonii.com:1337/announce
udp://tracker.coppersurfer.tk:6969/announce
udp://exodus.desync.com:6969/announce
µTorrent compatible trackers list

Relative Torrents

Torrent Name Size Age SEED LEECH
Rip Off Britain S10E08 XviD-AFG[TGx]
Posted by    mazemaze16   in   TV
700.1 MB 25 seconds 86 597
www Torrenting com - Goliath S02E01 INTENAL REPACK 1080p HEVC x265-MeGusta
Posted by    iDope   in   TV
517.5 MB 4 minutes 889 133
8163HarmonyWonderMyFirstBJVideo
Posted by    iDope   in   Video
620.2 MB 4 minutes 18 276
Greys Anatomy 14x23 Freddo Come Il Ghiacio ITA WEBMux x264-NovaRip mkv
Posted by    iDope   in   Video
350.0 MB 4 minutes 914 263
Dll Files Fixer 3 0 81 2643 Fixed Crack
Posted by    iDope   in   Apps
22.7 MB 4 minutes 182 571