Naam Shabana (2017) 720p Hindi HDRip x26 Torrent Free Download

Seeders : 577   &   Leechers : 320      14-06-2018 (1 week)
Naam Shabana (2017) 720p Hindi HDRip x26 Torrent Download
Added: ago by shmasti ***** in Movies   948.8 MB   Hits : 20
Info Hash: 6BB75E648D252A0E5763A5F6CAE0E72623E00A9C Download
Naam Shabana (2017) 720p Hindi HDRip x26 Torrent Download

Anonymous and Direct Download movies , software , shows...

Fast Safe Anonymous
movies, software, shows...
Naam Shabana
Action /Adventure /Thriller  .   147 min   6.3/10
Director : Shivam Nair  
Tags: Naam  Shabana  (2017)  720p  Hindi  HDRip  

Released:
31 Mar 2017
Shabana a college student who is also Kudo fighter lives with her mother in Mumbai at a young age she had killed her father trying to save her mother from his daily abuse and was sent to children remand home. Shabana is in love with Jai who gets killed by some spoi.... See More led brats when he tries to save Shabana from their abuse. Three months after the death of Jai the police haven't made any arrest as they were trying to save the culprits. Shabana then gets a anonymous call from Ranvir Singh telling that he will provide her details of Jai's killers in return she has to work for their secret National Defense Force.

Torrent Description





General
Complete name : Naam Shabana (2017) 720p Hindi HDRip x264 AAC by Full4movies.mkv
Format : Matroska
Format version : Version 4 / Version 2
File size : 949 MiB
Duration : 2 h 21 min
Overall bit rate : 937 kb/s
Encoded date : UTC 2018-06-14 16:38:15
Writing application : mkvmerge v8.1.0 ('Psychedelic Postcard') 32bit
Writing library : libebml v1.3.1 + libmatroska v1.4.2

Video
ID : 1
Format : AVC
Format/Info : Advanced Video Codec
Format profile : [email protected]
Format settings, CABAC : Yes
Format settings, RefFrames : 4 frames
Codec ID : V_MPEG4/ISO/AVC
Duration : 2 h 21 min
Bit rate : 776 kb/s
Width : 1 280 pixels
Height : 536 pixels
Display aspect ratio : 2.40:1
Frame rate mode : Constant
Frame rate : 25.000 FPS
Color space : YUV
Chroma subsampling : 4:2:0
Bit depth : 8 bits
Scan type : Progressive
Bits/(Pixel*Frame) : 0.045
Stream size : 785 MiB (83%)
Writing library : x264 core 148 r2708 86b7198
Language : Hindi
Default : Yes
Forced : No
Color range : Limited
Color primaries : BT.709
Transfer characteristics : BT.709
Matrix coefficients : BT.709

Audio
ID : 2
Format : AAC
Format/Info : Advanced Audio Codec
Format profile : LC
Codec ID : A_AAC
Duration : 2 h 21 min
Bit rate : 159 kb/s
Channel(s) : 2 channels
Channel positions : Front: L R
Sampling rate : 48.0 kHz
Frame rate : 46.875 FPS (1024 SPF)
Compression mode : Lossy
Delay relative to video : -21 ms
Stream size : 161 MiB (17%)
Language : Hindi
Default : Yes
Forced : No

Screen Shoots




Sharing Widget


No Comments For This Torrent . Be The First to Comment

You must Login to Comment . Click Here to Login

Menu 1

Some content in menu 1.

Naam Shabana (2017) 720p Hindi HDRip x264 AAC by Full4movies (Size: 948.8 MB)
  Naam Shabana (2017) 720p Hindi HDRip x264 AAC by Full4movies 948.8 MB
tracker name
udp://tracker.leechers-paradise.org:6969/announce
udp://zer0day.ch:1337/announce
udp://open.demonii.com:1337/announce
udp://tracker.coppersurfer.tk:6969/announce
udp://exodus.desync.com:6969/announce
µTorrent compatible trackers list

Relative Torrents

Torrent Name Size Age SEED LEECH
Detroiters S02E02 WEB x264-TBS[rarbg]
Posted by    iDope   in   TV
250.6 MB 1 minute 522 768
Vivegam (2018) Hindi Dubbed 720p HDRip x64 AAC mkv
Posted by    iDope   in   Movies
1.3 GB 1 minute 269 571
Unsane (2018) [WEBRip] [720p] English ex
Posted by    iDope   in   Apps
1.1 MB 1 minute 273 930
Marlon S02E03 720p WEB x264-TBS[rarbg]
Posted by    iDope   in   TV
416.5 MB 1 minute 742 828
桃色 HD720P高清国语中字 mp4
Posted by    iDope   in   Video
623.2 MB 7 minutes 21 408