[Moviesjug Net] Mitron 2018 Hindi [With Torrent Free Download

Seeders : 35   &   Leechers : 610      09-11-2018 (1 week)
[Moviesjug Net] Mitron 2018 Hindi [With Torrent Download
Added: ago by Moviesjug ***** in Movies   1.2 GB   Hits : 21
Info Hash: 8BD5AFDFA1A666EE681175749A7ECCF91D15ECD1 Download
[Moviesjug Net] Mitron 2018 Hindi [With Torrent Download

Anonymous and Direct Download movies , software , shows...

Fast Safe Anonymous
movies, software, shows...

Torrent Description







VISIT OUR SITE
http://moviesjug.net/









SCREENSHOTS...








MEDIA INFO......




General
Mitron 2018 Hindi [Moviesjug.Net] HDRip 720p 1.2GB x 264.mkv
Format : Matroska
Format version : Version 4 / Version 2
File size : 1.23 GiB
Duration : 1 h 56 min
Overall bit rate mode : Variable
Overall bit rate : 1 517 kb/s
Movie name : Downloladed From [Moviesjug.net]

Video
ID : 1
Format : AVC
Format/Info : Advanced Video Codec
Format profile : [email protected]
Format settings : CABAC / 4 Ref Frames
Format settings, CABAC : Yes
Format settings, RefFrames : 4 frames
Codec ID : V_MPEG4/ISO/AVC
Duration : 1 h 56 min
Bit rate : 1 428 kb/s
Width : 1 280 pixels
Height : 544 pixels
Display aspect ratio : 2.35:1
Frame rate mode : Constant
Frame rate : 24.000 FPS
Color space : YUV
Chroma subsampling : 4:2:0
Bit depth : 8 bits
Scan type : Progressive
Bits/(Pixel*Frame) : 0.085
Stream size : 1.16 GiB (94%)
Title : Downloladed From [Moviesjug.net]
Writing library : x264 core 155 r2901 7d0ff22
Language : Hindi
Default : Yes
Forced : No

Audio
ID : 2
Format : MPEG Audio
Format version : Version 1
Format profile : Layer 3
Format settings : Joint stereo / MS Stereo
Codec ID : A_MPEG/L3
Codec ID/Hint : MP3
Duration : 1 h 56 min
Bit rate mode : Variable
Bit rate : 86.7 kb/s
Nominal bit rate : 96.0 kb/s
Channel(s) : 2 channels
Sampling rate : 48.0 kHz
Frame rate : 41.667 FPS (1152 SPF)
Compression mode : Lossy
Stream size : 72.1 MiB (6%)
Title : Downloladed From [Moviesjug.net]
Writing library : LAME3.99r
Language : Hindi
Default : Yes
Forced : No

Text
ID : 3
Format : UTF-8
Codec ID : S_TEXT/UTF8
Codec ID/Info : UTF-8 Plain Text
Duration : 1 h 55 min
Bit rate : 72 b/s
Count of elements : 2102
Stream size : 61.3 KiB (0%)
Title : Downloladed From [Moviesjug.net]
Language : English
Default : Yes
Forced : No




Sharing Widget


No Comments For This Torrent . Be The First to Comment

You must Login to Comment . Click Here to Login

Menu 1

Some content in menu 1.

[Moviesjug Net] Mitron 2018 Hindi [With Sample] HDRip 720p 1 2GB Esubs (Size: 1.2 GB)
  [Moviesjug Net] Mitron 2018 Hindi [With Sample] HDRip 720p 1 2GB Esubs 1.2 GB
tracker name
udp://tracker.leechers-paradise.org:6969/announce
udp://zer0day.ch:1337/announce
udp://open.demonii.com:1337/announce
udp://tracker.coppersurfer.tk:6969/announce
udp://exodus.desync.com:6969/announce
µTorrent compatible trackers list

Relative Torrents

Torrent Name Size Age SEED LEECH
The Kominsky Method S01E08 REPACK 720p WBRip x264-STRiFE
Posted by    Trige   in   TV
540.5 MB 2 minutes 884 645
Mega Machines-Sea Giants S01E06 Masters f the Deep 720p WEBRip x264-CAFFEiNE [e
Posted by    EZTVag   in   TV
1.4 GB 2 minutes 584 621
VICE S06E26 WEBRip x264-ION10
Posted by    Trige   in   TV
287.6 MB 2 minutes 555 921
Guiding Alaska S01E06 Tasty Choice 720p EB x264-KOMPOST [eztv]
Posted by    EZTVag   in   TV
484.8 MB 7 minutes 569 917
The Cool Kids S01E07 XviD-AFG [eztv]
Posted by    EZTVag   in   TV
273.8 MB 7 minutes 684 534