Missing (2018) Hindi DVDRip - x264 AAC 7 Torrent Free Download

Seeders : 659   &   Leechers : 813      14-06-2018 (2 months)
Missing (2018) Hindi DVDRip - x264 AAC 7 Torrent Download
Added: ago by ictv ***** in Movies   690.8 MB   Hits : 31
Info Hash: 79F6C6B767411F2AEF0E1D2064F69D33D8F413ED Download
Missing (2018) Hindi DVDRip - x264 AAC 7 Torrent Download

Anonymous and Direct Download movies , software , shows...

Fast Safe Anonymous
movies, software, shows...
Missing
Biography /Drama /History  .   122 min   7.8/10
Director : Costa-Gavras  
Tags: Missing  (2018)  Hindi  DVDRip  -  x264  

Released:
12 Mar 1982
In September1973, in Chile, the American journalist Charles Horman arrives in Valparaiso with his friend Terry Simon to meet his wife Beth and bring her back to New York with him. However, they are surprised by the military coup d'état sponsored by the US Governme.... See More nt to replace President Salvador Allende and Charles is arrested by the military force. His father Ed Horman, a conservative businessman from New York, arrives in Chile to seek out his missing son with Beth. He goes to the American Consulate to meet the Consul that promises the best efforts to find Charles while the skeptical Beth does not trust on the word of the American authorities. The nationalism and confidence of Ed in his government changes when he finds the truth about what happened with his beloved son.

Torrent Description



Our Site www.movcr.com

http://www.imdb.com/title/tt7384848/



General
Unique ID : 96924992760798765411793680145110530737 (0x48EB131871F74BB74B6EFDF7AA43FAB1)
Complete name : www.MovCr.com - Missing (2018) Hindi DVDRip - x264 AAC 700MB- ESub - MovCr.mkv
Format : Matroska
Format version : Version 4 / Version 2
File size : 691 MiB
Duration : 2 h 0 min
Overall bit rate : 802 kb/s
Movie name : www.MovCr.com
Encoded date : UTC 2018-06-14 04:17:23
Writing application : mkvmerge v23.0.0 ('The Bride Said No') 64-bit
Writing library : libebml v1.3.6 + libmatroska v1.4.9

Video
ID : 1
Format : AVC
Format/Info : Advanced Video Codec
Format profile : [email protected]
Format settings, CABAC : Yes
Format settings, ReFrames : 4 frames
Codec ID : V_MPEG4/ISO/AVC
Duration : 2 h 0 min
Bit rate : 759 kb/s
Width : 640 pixels
Height : 272 pixels
Display aspect ratio : 2.35:1
Frame rate mode : Constant
Frame rate : 23.976 (24000/1001) FPS
Color space : YUV
Chroma subsampling : 4:2:0
Bit depth : 8 bits
Scan type : Progressive
Bits/(Pixel*Frame) : 0.182
Stream size : 648 MiB (94%)
Title : www.MovCr.com
Writing library : x264 core 142 r2431 ac76440
Encoding settings : cabac=1 / ref=3 / deblock=1:0:0 / analyse=0x3:0x113 / me=hex / subme=7 / psy=1 / psy_rd=1.00:0.00 / mixed_ref=1 / me_range=16 / chroma_me=1 / trellis=1 / 8x8dct=1 / cqm=0 / deadzone=21,11 / fast_pskip=1 / chroma_qp_offset=-2 / threads=1 / lookahead_threads=1 / sliced_threads=0 / nr=0 / decimate=1 / interlaced=0 / bluray_compat=0 / constrained_intra=0 / bframes=3 / b_pyramid=2 / b_adapt=1 / b_bias=0 / direct=1 / weightb=1 / open_gop=0 / weightp=2 / keyint=240 / keyint_min=23 / scenecut=40 / intra_refresh=0 / rc_lookahead=40 / rc=abr / mbtree=1 / bitrate=759 / ratetol=1.0 / qcomp=0.60 / qpmin=0 / qpmax=69 / qpstep=4 / ip_ratio=1.40 / aq=1:1.00
Default : Yes
Forced : No

Audio
ID : 2
Format : AAC
Format/Info : Advanced Audio Codec
Format profile : HE-AACv2 / HE-AAC / LC
Codec ID : A_AAC
Duration : 2 h 0 min
Bit rate : 48.0 kb/s
Channel(s) : 2 channels / 1 channel / 1 channel
Channel positions : Front: L R / Front: C / Front: C
Sampling rate : 48.0 kHz / 48.0 kHz / 24.0 kHz
Frame rate : 23.438 FPS (1024 spf)
Compression mode : Lossy
Delay relative to video : 11 ms
Stream size : 41.0 MiB (6%)
Title : www.MovCr.com
Default : Yes
Forced : No

Text
ID : 3
Format : UTF-8
Codec ID : S_TEXT/UTF8
Codec ID/Info : UTF-8 Plain Text
Duration : 1 h 54 min
Bit rate : 58 b/s
Count of elements : 1738
Stream size : 48.7 KiB (0%)
Title : www.MovCr.com
Language : English
Default : Yes
Forced : No












Sharing Widget


No Comments For This Torrent . Be The First to Comment

You must Login to Comment . Click Here to Login

Menu 1

Some content in menu 1.

Missing (2018) Hindi DVDRip - x264 AAC 700MB- ESub - MovCr (Size: 690.8 MB)
  Missing (2018) Hindi DVDRip - x264 AAC 700MB- ESub - MovCr 690.8 MB
tracker name
udp://tracker.leechers-paradise.org:6969/announce
udp://zer0day.ch:1337/announce
udp://open.demonii.com:1337/announce
udp://tracker.coppersurfer.tk:6969/announce
udp://exodus.desync.com:6969/announce
µTorrent compatible trackers list

Relative Torrents

Torrent Name Size Age SEED LEECH
The Beechgrove Garden S40E14 540p iP WEBDL AAC2 0 H 264-SOIL[TGx]
Posted by    mazemaze16   in   TV
398.9 MB 10 minutes 805 558
Gardeners World S51E20 720p iP WEBRip AA2 0 x264-SOIL[TGx]
Posted by    mazemaze16   in   TV
1.3 GB 10 minutes 621 564
GridinSoft Anti-Malware 4 0 7 226 Multilngual Patch
Posted by    alE13   in   Applications
72.5 MB 15 minutes 869 425
Beast 2018 1080p WEB-DL DD5 1 H264-CMRG[tHD]
Posted by    EtHD   in   Movies
3.5 GB 18 minutes 711 410
Beast 2018 HDRip AC3 X264-CMRG[TGx]
Posted by    mazemaze16   in   Movies
1.5 GB 18 minutes 873 206