Kaathirupor Pattiyal 2018 Hindi Dubbed 7 Torrent Free Download

Seeders : 675   &   Leechers : 528      13-07-2018 (3 months)
Kaathirupor Pattiyal 2018 Hindi Dubbed 7 Torrent Download
Added: ago by DESIRE123 ***** in Movies   812.6 MB   Hits : 42
Info Hash: 1353CFD8D4169824C7B77FAF1F4474080AD0C73B Download
Kaathirupor Pattiyal 2018 Hindi Dubbed 7 Torrent Download

Anonymous and Direct Download movies , software , shows...

Fast Safe Anonymous
movies, software, shows...

Torrent Description



Kaathirupor Pattiyal 2018 Hindi Dubbed 720p HDRip x264 - 800 MB



EXUSIVE UPLOAD BY DESIREMOVIES.LIVE


Kaathirupor Pattiyal 2018


POSTER [center]


[center]INFO


General
Complete name :Kaathirupor Pattiyal 2018 720p HDrip Hindi x264 DesireMoVies.LIVE.mkv
Format : Matroska
Format version : Version 4 / Version 2
File size : 813 MiB
Duration : 1 h 45 min
Overall bit rate : 1 074 kb/s
Movie name : DesireMovies.LIvE
Encoded date : UTC 2018-07-13 04:11:21
Writing library : libebml v1.3.6 + libmatroska v1.4.9

Video
ID : 1
Format : AVC
Format/Info : Advanced Video Codec
Format profile : [email protected]
Format settings, CABAC : Yes
Format settings, RefFrames : 3 frames
Codec ID : V_MPEG4/ISO/AVC
Duration : 1 h 45 min
Bit rate : 946 kb/s
Width : 1 280 pixels
Height : 720 pixels
Display aspect ratio : 16:9
Frame rate mode : Constant
Frame rate : 24.000 FPS
Color space : YUV
Chroma subsampling : 4:2:0
Bit depth : 8 bits
Scan type : Progressive
Bits/(Pixel*Frame) : 0.043
Stream size : 716 MiB (88%)
Title : DesireMoVies.LIVE
Default : Yes
Forced : No
Color range : Limited
Color primaries : BT.709
Transfer characteristics : BT.709
Matrix coefficients : BT.709

Audio
ID : 2
Format : AAC
Format/Info : Advanced Audio Codec
Format profile : LC
Codec ID : A_AAC
Duration : 1 h 45 min
Bit rate : 126 kb/s
Channel(s) : 2 channels
Channel positions : Front: L R
Sampling rate : 44.1 kHz
Frame rate : 43.066 FPS (1024 SPF)
Compression mode : Lossy
Stream size : 95.0 MiB (12%)
Title : DesireMoVies.LIVE
Language : Hindi
Default : Yes
Forced : No

[center]
[center]SCREENSHOT [center]
[center]7e2b912d7ae88fc9a2c2c3ee84f908d0.th.png 8a54ba4c20bb68b11f2390f341009b25.th.png 39ce3a9adda15945b03ed84d09113add.th.png 6cec3be855e9595f8b0a2b11ec638db5.th.png 05bf6902a93d77b6ac306a74ff273128.th.png 0426ce3992579ce69b05b0595d7d7873.th.png 67595b0f0e00cbc9d1718529ed47d355.th.png 67ece1593509637d7544edb3ac146ca2.th.png 87653cf0d9205014a3e5060c22f90500.th.png 81aa7ef223a43e36c27b1a85a26c0848.th.png 115346597df488def5e7ca085973eed5.th.png




Sharing Widget


No Comments For This Torrent . Be The First to Comment

You must Login to Comment . Click Here to Login

Menu 1

Some content in menu 1.

Kaathirupor Pattiyal 2018 Hindi Dubbed 720p HDRip x264 - 800 MB (Size: 812.6 MB)
  Kaathirupor Pattiyal 2018 Hindi Dubbed 720p HDRip x264 - 800 MB 812.6 MB
tracker name
udp://tracker.leechers-paradise.org:6969/announce
udp://zer0day.ch:1337/announce
udp://open.demonii.com:1337/announce
udp://tracker.coppersurfer.tk:6969/announce
udp://exodus.desync.com:6969/announce
µTorrent compatible trackers list

Relative Torrents

Torrent Name Size Age SEED LEECH
Not Safe For Work (2014) BluRay - 720p -x264 - [Tamil + Hindi + English] - 700M
Posted by    anily   in   Movies
735.8 MB 3 minutes 9 931
Sinister (2012) BluRay - 720p - x264 - [amil + Hindi + English] - 1GB - ESub TE
Posted by    anily   in   Movies
1.0 GB 6 minutes 278 506
Malevolence 3 Killer 2018 BDRip XviD AC3EVO[EtMovies]
Posted by    EtHD   in   Movies
1.3 GB 6 minutes 456 620
Sarkar (2018) Tamil Teaser UHD UNTOUCHEDAVC 4K - BY [SM-Team]
Posted by    BDMovieHD   in   Music
178.7 MB 6 minutes 119 476
Yu Gi Oh VRAINS S01E73 iNTERNAL WEB x264ANiURL [eztv]
Posted by    EZTVag   in   TV
267.5 MB 10 minutes 184 802