Jurassic World Fallen Kingdom (2018) (10 Torrent Free Download

Seeders : 293   &   Leechers : 539      15-09-2018 (2 months)
Jurassic World Fallen Kingdom (2018) (10 Torrent Download
Added: ago by UTRCorp ***** in Movies   2.9 GB   Hits : 58
Info Hash: 34659649A61349BD1F8718A166050E39C5759EC1 Download
Jurassic World Fallen Kingdom (2018) (10 Torrent Download

Anonymous and Direct Download movies , software , shows...

Fast Safe Anonymous
movies, software, shows...
Jurassic World: Fallen Kingdom
Action /Adventure /Sci-Fi  .   128 min   6.3/10
Director : J.A. Bayona  
Tags: Jurassic  World  Fallen  Kingdom  (2018)  (1080p  

Released:
22 Jun 2018
When the island's dormant volcano begins roaring to life, Owen and Claire mount a campaign to rescue the remaining dinosaurs from this extinction-level event.

Torrent Description










Media Information

Media Information

Code:

General
Format : Matroska
Format version : Version 4 / Version 2
File size : 2.93 GiB
Duration : 2 h 8 min
Overall bit rate : 3 271 kb/s
Encoded date : UTC 2018-09-14 17:54:27
Writing application : mkvmerge v9.6.0 ('Slave To Your Mind') 64bit
Writing library : libebml v1.3.4 + libmatroska v1.4.5

Video
ID : 1
Format : HEVC
Format/Info : High Efficiency Video Coding
Format profile : Main [email protected]@Main
Codec ID : V_MPEGH/ISO/HEVC
Duration : 2 h 8 min
Bit rate : 1 749 kb/s
Width : 1 920 pixels
Height : 804 pixels
Display aspect ratio : 2.40:1
Frame rate mode : Constant
Frame rate : 23.976 (24000/1001) FPS
Color space : YUV
Chroma subsampling : 4:2:0
Bit depth : 10 bits
Bits/(Pixel*Frame) : 0.047
Stream size : 1.57 GiB (53%)
Writing library : x265 2.8+66-88ee12651e30:[Windows][MSVC 1915][64 bit] 10bit
Encoding settings : cpuid=1111039 / frame-threads=2 / numa-pools=4 / wpp / no-pmode / no-pme / no-psnr / no-ssim / log-level=2 / input-csp=1 / input-res=1920x804 / interlace=0 / total-frames=184560 / level-idc=0 / high-tier=1 / uhd-bd=0 / ref=4 / no-allow-non-conformance / no-repeat-headers / annexb / no-aud / no-hrd / info / hash=0 / no-temporal-layers / open-gop / min-keyint=23 / keyint=250 / gop-lookahead=0 / bframes=8 / b-adapt=2 / b-pyramid / bframe-bias=0 / rc-lookahead=80 / lookahead-slices=4 / scenecut=40 / radl=0 / no-intra-refresh / ctu=64 / min-cu-size=8 / no-rect / no-amp / max-tu-size=32 / tu-inter-depth=1 / tu-intra-depth=1 / limit-tu=0 / rdoq-level=2 / dynamic-rd=0.00 / no-ssim-rd / signhide / no-tskip / nr-intra=0 / nr-inter=0 / no-constrained-intra / no-strong-intra-smoothing / max-merge=3 / limit-refs=3 / limit-modes / me=3 / subme=3 / merange=57 / temporal-mvp / weightp / no-weightb / no-analyze-src-pics / deblock=-1:-1 / no-sao / no-sao-non-deblock / rd=4 / no-early-skip / no-rskip / no-fast-intra / no-tskip-fast / no-cu-lossless / b-intra / no-splitrd-skip / rdpenalty=0 / psy-rd=1.00 / psy-rdoq=2.50 / no-rd-refine / no-lossless / cbqpoffs=0 / crqpoffs=0 / rc=crf / crf=22.0 / qcomp=0.60 / qpstep=4 / stats-write=0 / stats-read=0 / ipratio=1.40 / pbratio=1.30 / aq-mode=3 / aq-strength=0.60 / cutree / zone-count=0 / no-strict-cbr / qg-size=32 / no-rc-grain / qpmax=69 / qpmin=0 / no-const-vbv / sar=0 / overscan=0 / videoformat=5 / range=0 / colorprim=2 / transfer=2 / colormatrix=2 / chromaloc=0 / display-window=0 / max-cll=0,0 / min-luma=0 / max-luma=1023 / log2-max-poc-lsb=8 / vui-timing-info / vui-hrd-info / slices=1 / no-opt-qp-pps / no-opt-ref-list-length-pps / no-multi-pass-opt-rps / scenecut-bias=0.05 / no-opt-cu-delta-qp / no-aq-motion / no-hdr / no-hdr-opt / no-dhdr10-opt / no-idr-recovery-sei / analysis-reuse-level=5 / scale-factor=0 / refine-intra=0 / refine-inter=0 / refine-mv=0 / no-limit-sao / ctu-info=0 / no-lowpass-dct / refine-mv-type=0 / copy-pic=1 / max-ausize-factor=1.0 / no-dynamic-refine / no-single-sei
Language : English
Default : Yes
Forced : No

Audio
ID : 2
Format : DTS
Format/Info : Digital Theater Systems
Mode : 16
Format settings, Endianness : Big
Codec ID : A_DTS
Duration : 2 h 8 min
Bit rate mode : Constant
Bit rate : 1 509 kb/s
Channel(s) : 6 channels
Channel positions : Front: L C R, Side: L R, LFE
Sampling rate : 48.0 kHz
Frame rate : 93.750 FPS (512 spf)
Bit depth : 24 bits
Compression mode : Lossy
Stream size : 1.35 GiB (46%)
Language : English
Default : Yes
Forced : No

Subtitle
ID : 3
Format : PGS
Muxing mode : zlib
Codec ID : S_HDMV/PGS
Codec ID/Info : Picture based subtitle format used on BDs/HD-DVDs
Duration : 2 h 7 min
Bit rate : 11.2 kb/s
Count of elements : 3541
Stream size : 10.2 MiB (0%)
Language : English
Default : Yes
Forced : No

Menu
00:00:00.000 : en:Chapter 01
00:07:13.224 : en:Chapter 02
00:12:01.554 : en:Chapter 03
00:17:17.745 : en:Chapter 04
00:21:17.192 : en:Chapter 05
00:28:49.811 : en:Chapter 06
00:35:04.393 : en:Chapter 07
00:40:51.574 : en:Chapter 08
00:46:32.498 : en:Chapter 09
00:52:05.247 : en:Chapter 10
01:00:59.197 : en:Chapter 11
01:06:50.256 : en:Chapter 12
01:11:07.638 : en:Chapter 13
01:17:21.094 : en:Chapter 14
01:26:55.210 : en:Chapter 15
01:33:01.492 : en:Chapter 16
01:42:55.878 : en:Chapter 17
01:50:01.553 : en:Chapter 18
01:54:56.222 : en:Chapter 19
01:58:38.236 : en:Chapter 20



Source Information

Code:

Release:
Unknown Source/NO-GROUP







Sharing Widget


No Comments For This Torrent . Be The First to Comment

You must Login to Comment . Click Here to Login

Menu 1

Some content in menu 1.

Jurassic World Fallen Kingdom (2018) (1080p BluRay 10bit x265 HEVC DTS (Size: 2.9 GB)
  Jurassic World Fallen Kingdom (2018) (1080p BluRay 10bit x265 HEVC DTS 2.9 GB
tracker name
udp://tracker.leechers-paradise.org:6969/announce
udp://zer0day.ch:1337/announce
udp://open.demonii.com:1337/announce
udp://tracker.coppersurfer.tk:6969/announce
udp://exodus.desync.com:6969/announce
µTorrent compatible trackers list

Relative Torrents

Torrent Name Size Age SEED LEECH
The Big Bang Theory S12E09 720p HDTV x26-MiNX[TGx]
Posted by    mazemaze16   in   TV
103.7 MB 10 minutes 506 455
Strange Wilderness 2008 720p BluRay H264AAC
Posted by    Trige   in   Movies
1.0 GB 16 minutes 701 746
The Matrix Reloaded (2003) (2160p BluRayx265 HEVC 10bit HDR AAC 7 1 Tigole) [Qx
Posted by    QxR   in   Movies
13.7 GB 16 minutes 461 631
Happy End (2017) (1080p BluRay x265 HEVC10bit AAC 5 1 French Tigole) [QxR]
Posted by    QxR   in   Movies
4.9 GB 16 minutes 466 961
Legacies S01E04 720p HDTV x265-MiNX[TGx]
Posted by    mazemaze16   in   TV
198.5 MB 20 minutes 369 505