Irumbu Thirai (2018) Tamil - 720p - HDTV Torrent Free Download

Seeders : 308   &   Leechers : 688      14-06-2018 (1 week)
Irumbu Thirai (2018) Tamil - 720p - HDTV Torrent Download
Added: ago by MovCr ***** in Movies   2.8 GB   Hits : 20
Info Hash: EF722549E1208B5124B93E6D39D44619E359D464 Download
Irumbu Thirai (2018) Tamil - 720p - HDTV Torrent Download

Anonymous and Direct Download movies , software , shows...

Fast Safe Anonymous
movies, software, shows...
Irumbu Thirai
Action /Thriller  .   N/A   N/A/10
Director : P.S. Mithran  
Writer: N/A  
Tags: Irumbu  Thirai  (2018)  Tamil  -  720p  

Released:
N/A
N/A

Torrent Description



http://movcr.com

Irumbu Thirai (2018) Tamil - 720p - HDTV - x264 - 2.7GB - AAC - MovCr


Video
ID : 1
Format : AVC
Format/Info : Advanced Video Codec
Format profile : [email protected]
Format settings, CABAC : Yes
Format settings, ReFrames : 4 frames
Format settings, GOP : M=8, N=24
Codec ID : V_MPEG4/ISO/AVC
Duration : 2 h 34 min
Bit rate : 2 485 kb/s
Width : 1 280 pixels
Height : 720 pixels
Display aspect ratio : 16:9
Frame rate mode : Constant
Frame rate : 25.000 FPS
Color space : YUV
Chroma subsampling : 4:2:0
Bit depth : 8 bits
Scan type : Progressive
Bits/(Pixel*Frame) : 0.108
Stream size : 2.68 GiB (96%)
Title : www.MovCr.com
Default : Yes
Forced : No
Color range : Limited
Color primaries : BT.709
Transfer characteristics : BT.709
Matrix coefficients : BT.709

Audio
ID : 2
Format : AAC
Format/Info : Advanced Audio Codec
Format profile : LC
Codec ID : A_AAC
Duration : 2 h 34 min
Bit rate : 96.0 kb/s
Channel(s) : 2 channels
Channel positions : Front: L R
Sampling rate : 48.0 kHz
Frame rate : 46.875 FPS (1024 spf)
Compression mode : Lossy
Stream size : 106 MiB (4%)
Title : www.MovCr.com
Language : Tamil
Default : Yes
Forced : No






Sharing Widget


No Comments For This Torrent . Be The First to Comment

You must Login to Comment . Click Here to Login

Menu 1

Some content in menu 1.

Irumbu Thirai (2018) Tamil - 720p - HDTV - x264 - 2 7GB - AAC - MovCr (Size: 2.8 GB)
  Irumbu Thirai (2018) Tamil - 720p - HDTV - x264 - 2 7GB - AAC - MovCr 2.8 GB
tracker name
udp://tracker.leechers-paradise.org:6969/announce
udp://zer0day.ch:1337/announce
udp://open.demonii.com:1337/announce
udp://tracker.coppersurfer.tk:6969/announce
udp://exodus.desync.com:6969/announce
µTorrent compatible trackers list

Relative Torrents

Torrent Name Size Age SEED LEECH
The Mummy 1999 PL AC3 DVDRip XviD-GR4PE
Posted by    iDope   in   Movies
1.4 GB 4 minutes 459 377
桃色 HD720P高清国语中字 mp4
Posted by    iDope   in   Video
623.2 MB 4 minutes 21 408
[email protected]@JUTA-052
Posted by    iDope   in   Video
395.8 MB 4 minutes 996 939
The way back (2010 ITA-ENG)[720p] mkv
Posted by    iDope   in   Video
2.6 GB 4 minutes 784 967
MP3-daily-2018-June-21-Blues
Posted by    iDope   in   Music
104.8 MB 4 minutes 387 213