Incredibles 2 (2018) 1080p BluRay x265 1 Torrent Free Download

Seeders : 157   &   Leechers : 948      09-11-2018 (1 week)
Incredibles 2 (2018) 1080p BluRay x265 1 Torrent Download
Added: ago by DesiZombies ***** in Movies   10.5 GB   Hits : 18
Info Hash: 44A19E58754EAD54C050D2C812581F77E9CD139B Download
Incredibles 2 (2018) 1080p BluRay x265 1 Torrent Download

Anonymous and Direct Download movies , software , shows...

Fast Safe Anonymous
movies, software, shows...
Incredibles 2
Animation /Action /Adventure /Comedy /Family /Sci-Fi  .   118 min   8.0/10
Director : Brad Bird  
Writer: Brad Bird  
Tags: Incredibles  2  (2018)  1080p  BluRay  x265  

Released:
15 Jun 2018
Bob Parr (Mr. Incredible) is left to care for the kids while Helen (Elastigirl) is out saving the world.

Torrent Description



[align=center]





[font=Comic Sans MS]Incredibles 2 (2018) 1080p BluRay x265 10Bit HEVC Multi Audio DD 5.1 640 Kbps [Dzrg Torrents®].mkv[/font]



[font=Comic Sans MS]Taglines: Suit up. [/font]

[video]http://www.youtube.com/watch?v=i5qOzqD9Rms[/video]




[font=Comic Sans MS]
General
Unique ID : 211824541970329212579531204640594217145 (0x9F5BEC3ED3ED7015993786928E5448B9)
Format : Matroska
Format version : Version 4
File size : 10.5 GiB
Duration : 1 h 57 min
Overall bit rate : 12.7 Mb/s
Movie name : Incredibles 2 (2018) 1080p BluRay x265 10Bit HEVC Multi Audio DD 5.1 640 Kbps [Dzrg Torrents®].mkv
Encoded date : UTC 2018-11-08 08:06:10
Writing application : mkvmerge v13.0.0 ('The Juggler') 64bit
Writing library : libebml v1.3.4 + libmatroska v1.4.5
[/font]



[font=Comic Sans MS]
Video
ID : 1
Format : HEVC
Format/Info : High Efficiency Video Coding
Format profile : Main [email protected]@Main
Codec ID : V_MPEGH/ISO/HEVC
Duration : 1 h 57 min
Bit rate : 9 441 kb/s
Width : 1 920 pixels
Height : 1 080 pixels
Display aspect ratio : 2.40:1
Frame rate mode : Constant
Frame rate : 23.976 (24000/1001) FPS
Color space : YUV
Chroma subsampling : 4:2:0
Bit depth : 10 bits
Bits/(Pixel*Frame) : 0.190
Stream size : 7.77 GiB (74%)
Title : Incredibles 2 (2018) 1080p BluRay x265 10Bit HEVC Multi Audio DD 5.1 640 Kbps [Dzrg Torrents®].mkv
Writing library : x265 2.6:[Windows][GCC 7.3.0][64 bit] 10bit
Language : English
Default : Yes
Forced : No
Color range : Limited
Color primaries : BT.709
Transfer characteristics : BT.709
Matrix coefficients : BT.709
[/font]






[font=Comic Sans MS]
Audio #1
ID : 2
Format : AC-3
Format/Info : Audio Coding 3
Commercial name : Dolby Digital
Codec ID : A_AC3
Duration : 1 h 57 min
Bit rate mode : Constant
Bit rate : 640 kb/s
Channel(s) : 6 channels
Channel layout : L R C LFE Ls Rs
Sampling rate : 48.0 kHz
Frame rate : 31.250 FPS (1536 SPF)
Bit depth : 16 bits
Compression mode : Lossy
Stream size : 539 MiB (5%)
Title : [DD 5.1 640 Kbps] [Dzrg Torrents®]
Language : English
Service kind : Complete Main
Default : Yes
Forced : No
[/font]




[font=Comic Sans MS]
Audio #2
ID : 3
Format : AC-3
Format/Info : Audio Coding 3
Commercial name : Dolby Digital
Codec ID : A_AC3
Duration : 1 h 57 min
Bit rate mode : Constant
Bit rate : 640 kb/s
Channel(s) : 6 channels
Channel layout : L R C LFE Ls Rs
Sampling rate : 48.0 kHz
Frame rate : 31.250 FPS (1536 SPF)
Bit depth : 16 bits
Compression mode : Lossy
Stream size : 539 MiB (5%)
Title : [DD 5.1 640 Kbps] [Dzrg Torrents®]
Language : Portuguese
Service kind : Complete Main
Default : No
Forced : No
[/font]




[font=Comic Sans MS]

Audio #3
ID : 4
Format : AC-3
Format/Info : Audio Coding 3
Commercial name : Dolby Digital
Codec ID : A_AC3
Duration : 1 h 57 min
Bit rate mode : Constant
Bit rate : 640 kb/s
Channel(s) : 6 channels
Channel layout : L R C LFE Ls Rs
Sampling rate : 48.0 kHz
Frame rate : 31.250 FPS (1536 SPF)
Bit depth : 16 bits
Compression mode : Lossy
Stream size : 539 MiB (5%)
Title : [DD 5.1 640 Kbps] [Dzrg Torrents®]
Language : Chinese
Service kind : Complete Main
Default : No
Forced : No
[/font]




[font=Comic Sans MS]
Audio #4
ID : 5
Format : AC-3
Format/Info : Audio Coding 3
Commercial name : Dolby Digital
Codec ID : A_AC3
Duration : 1 h 57 min
Bit rate mode : Constant
Bit rate : 640 kb/s
Channel(s) : 6 channels
Channel layout : L R C LFE Ls Rs
Sampling rate : 48.0 kHz
Frame rate : 31.250 FPS (1536 SPF)
Bit depth : 16 bits
Compression mode : Lossy
Stream size : 539 MiB (5%)
Title : [DD 5.1 640 Kbps] [Dzrg Torrents®]
Language : Korean
Service kind : Complete Main
Default : No
Forced : No
[/font]



[font=Comic Sans MS]
Audio #5
ID : 6
Format : AC-3
Format/Info : Audio Coding 3
Commercial name : Dolby Digital
Codec ID : A_AC3
Duration : 1 h 57 min
Bit rate mode : Constant
Bit rate : 640 kb/s
Channel(s) : 6 channels
Channel layout : L R C LFE Ls Rs
Sampling rate : 48.0 kHz
Frame rate : 31.250 FPS (1536 SPF)
Bit depth : 16 bits
Compression mode : Lossy
Stream size : 539 MiB (5%)
Title : [DD 5.1 640 Kbps] [Dzrg Torrents®]
Language : Thai
Service kind : Complete Main
Default : No
Forced : No
[/font]




[font=Comic Sans MS]
Text #1
ID : 7
Format : PGS
Muxing mode : zlib
Codec ID : S_HDMV/PGS
Codec ID/Info : Picture based subtitle format used on BDs/HD-DVDs
Duration : 1 h 56 min
Bit rate : 42.7 kb/s
Count of elements : 3522
Stream size : 35.5 MiB (0%)
Title : [PGS] [Dzrg Torrents®]
Language : English
Default : Yes
Forced : No
[/font]




[font=Comic Sans MS]
Text #2
ID : 8
Format : PGS
Muxing mode : zlib
Codec ID : S_HDMV/PGS
Codec ID/Info : Picture based subtitle format used on BDs/HD-DVDs
Duration : 1 h 56 min
Bit rate : 41.4 kb/s
Count of elements : 3484
Stream size : 34.4 MiB (0%)
Title : [PGS] [Dzrg Torrents®]
Language : Portuguese
Default : No
Forced : No
[/font]




[font=Comic Sans MS]
Text #3
ID : 9
Format : PGS
Muxing mode : zlib
Codec ID : S_HDMV/PGS
Codec ID/Info : Picture based subtitle format used on BDs/HD-DVDs
Duration : 1 h 56 min
Bit rate : 24.7 kb/s
Count of elements : 3526
Stream size : 20.5 MiB (0%)
Title : [PGS] [Dzrg Torrents®]
Language : Chinese
Default : No
Forced : No
[/font]




[font=Comic Sans MS]
Text #4
ID : 10
Format : PGS
Muxing mode : zlib
Codec ID : S_HDMV/PGS
Codec ID/Info : Picture based subtitle format used on BDs/HD-DVDs
Duration : 1 h 56 min
Bit rate : 24.0 kb/s
Count of elements : 3518
Stream size : 19.9 MiB (0%)
Title : [PGS] [Dzrg Torrents®]
Language : Korean
Default : No
Forced : No
[/font]



[font=Comic Sans MS]
Text #5
ID : 11
Format : PGS
Muxing mode : zlib
Codec ID : S_HDMV/PGS
Codec ID/Info : Picture based subtitle format used on BDs/HD-DVDs
Duration : 1 h 56 min
Bit rate : 25.4 kb/s
Count of elements : 3526
Stream size : 21.1 MiB (0%)
Title : [PGS] [Dzrg Torrents®]
Language : Thai
Default : No
Forced : No
[/font]


[font=Comic Sans MS]
Menu
00:00:00.000 : en:Chapter 01
00:03:22.327 : en:Chapter 02
00:08:53.616 : en:Chapter 03
00:09:36.784 : en:Chapter 04
00:13:38.275 : en:Chapter 05
00:15:44.735 : en:Chapter 06
00:21:19.736 : en:Chapter 07
00:23:28.281 : en:Chapter 08
00:27:08.793 : en:Chapter 09
00:28:59.571 : en:Chapter 10
00:35:10.900 : en:Chapter 11
00:39:07.845 : en:Chapter 12
00:42:43.894 : en:Chapter 13
00:43:42.411 : en:Chapter 14
00:47:35.352 : en:Chapter 15
00:48:53.889 : en:Chapter 16
00:54:15.585 : en:Chapter 17
00:56:16.039 : en:Chapter 18
01:00:58.696 : en:Chapter 19
01:02:01.884 : en:Chapter 20
01:06:55.511 : en:Chapter 21
01:09:18.237 : en:Chapter 22
01:11:28.200 : en:Chapter 23
01:12:37.686 : en:Chapter 24
01:14:39.266 : en:Chapter 25
01:18:00.967 : en:Chapter 26
01:20:32.536 : en:Chapter 27
01:25:01.763 : en:Chapter 28
01:27:59.440 : en:Chapter 29
01:31:53.925 : en:Chapter 30
01:33:26.434 : en:Chapter 31
01:36:25.237 : en:Chapter 32
01:37:45.192 : en:Chapter 33
01:43:56.897 : en:Chapter 34
01:45:35.912 : en:Chapter 35
01:47:30.944 : en:Chapter 36
[/font]



Please Contribute Through Bitcoin-378zyc7YCno2H3kpqQomw1aJaUTaoeQWGC





[font=Comic Sans MS]Seeding From High Server[/font]

[/align]




Sharing Widget


No Comments For This Torrent . Be The First to Comment

You must Login to Comment . Click Here to Login

Menu 1

Some content in menu 1.

Incredibles 2 (2018) 1080p BluRay x265 10Bit HEVC Multi Audio DD 5 1 6 (Size: 10.5 GB)
  Incredibles 2 (2018) 1080p BluRay x265 10Bit HEVC Multi Audio DD 5 1 6 10.5 GB
tracker name
udp://tracker.leechers-paradise.org:6969/announce
udp://zer0day.ch:1337/announce
udp://open.demonii.com:1337/announce
udp://tracker.coppersurfer.tk:6969/announce
udp://exodus.desync.com:6969/announce
µTorrent compatible trackers list

Relative Torrents

Torrent Name Size Age SEED LEECH
The Pelican Brief (1993) [BluRay] [720p][YTS] [YIFY]
Posted by    YTSAGx   in   Movies
1.2 GB 1 minute 575 160
Mirzapur (2018) Season 1 - HDRip - x264 [Hindi + Tamil + Telugu] - 750MB - Mov
Posted by    MovCr   in   Movies
751.4 MB 1 minute 552 616
Mirzapur (2018) Season 1 - 720p - HDRip x264 - [Hindi + Tamil + Telugu] - 2 7G
Posted by    MovCr   in   Movies
2.8 GB 1 minute 747 458
Mirzapur (2018) Season 1 - HDRip - x264 [Hindi + Tamil + Telugu] - 1 4GB - Mov
Posted by    MovCr   in   Movies
1.4 GB 4 minutes 6 760
Stephen Colbert 2018 11 15 Ben Stiller WB x264-TBS
Posted by    Trige   in   TV
648.4 MB 6 minutes 695 549