Grey's Anatomy (2005) S15E03 (1080p AMZN Torrent Free Download

Seeders : 174   &   Leechers : 492      08-10-2018 (2 weeks)
Grey's Anatomy (2005) S15E03 (1080p AMZN Torrent Download
Added: ago by Vyndros ***** in TV   804.1 MB   Hits : 26
Info Hash: DF6F244157324CA0B38F2998DF50FB94694D47AE Download
Grey's Anatomy (2005) S15E03 (1080p AMZN Torrent Download

Anonymous and Direct Download movies , software , shows...

Fast Safe Anonymous
movies, software, shows...
Grey's Anatomy
Drama /Romance  .   41 min   7.6/10
Director : N/A  
Writer: Shonda Rhimes  
Tags: Grey's  Anatomy  (2005)  S15E03  (1080p  AMZN  

Released:
27 Mar 2005
A Medical-Based drama centered around Meredith Grey, an aspiring surgeon and daughter of one of the best surgeons, Dr. Ellis Grey. Throughout the series, Meredith goes through professional and personal challenges along with fellow surgeons at Seattle Grace Hospital.... See More .

Torrent Description








Media Information

Code:

General
Format : Matroska
Format version : Version 4 / Version 2
File size : 804 MiB
Duration : 43 min 3 s
Overall bit rate : 2 611 kb/s
Encoded date : UTC 2018-10-06 03:32:21
Writing application : mkvmerge v20.0.0 ('I Am The Sun') 64-bit
Writing library : libebml v1.3.5 + libmatroska v1.4.8
Writing frontend : StaxRip v1.7.0.6

Video
ID : 1
Format : HEVC
Format/Info : High Efficiency Video Coding
Format profile : Main [email protected]@Main
Codec ID : V_MPEGH/ISO/HEVC
Duration : 43 min 3 s
Bit rate : 2 161 kb/s
Width : 1 920 pixels
Height : 1 080 pixels
Display aspect ratio : 16:9
Frame rate mode : Constant
Frame rate : 23.976 (24000/1001) FPS
Color space : YUV
Chroma subsampling : 4:2:0
Bit depth : 10 bits
Bits/(Pixel*Frame) : 0.043
Stream size : 665 MiB (83%)
Writing library : x265 2.8+57-eea92165b035:[Windows][GCC 7.3.0][64 bit] 10bit
Encoding settings : cpuid=1111039 / frame-threads=3 / numa-pools=12 / wpp / no-pmode / no-pme / no-psnr / ssim / log-level=2 / input-csp=1 / input-res=1920x1080 / interlace=0 / total-frames=61932 / level-idc=0 / high-tier=1 / uhd-bd=0 / ref=3 / no-allow-non-conformance / no-repeat-headers / annexb / no-aud / no-hrd / info / hash=0 / no-temporal-layers / open-gop / min-keyint=23 / keyint=250 / gop-lookahead=0 / bframes=8 / b-adapt=2 / b-pyramid / bframe-bias=0 / rc-lookahead=50 / lookahead-slices=6 / scenecut=40 / radl=0 / no-intra-refresh / ctu=64 / min-cu-size=8 / no-rect / no-amp / max-tu-size=32 / tu-inter-depth=1 / tu-intra-depth=1 / limit-tu=0 / rdoq-level=0 / dynamic-rd=0.00 / no-ssim-rd / signhide / no-tskip / nr-intra=0 / nr-inter=0 / no-constrained-intra / no-strong-intra-smoothing / max-merge=3 / limit-refs=3 / no-limit-modes / me=3 / subme=3 / merange=57 / temporal-mvp / weightp / no-weightb / no-analyze-src-pics / deblock=0:0 / sao / no-sao-non-deblock / rd=3 / no-early-skip / no-rskip / no-fast-intra / no-tskip-fast / no-cu-lossless / no-b-intra / no-splitrd-skip / rdpenalty=0 / psy-rd=1.50 / psy-rdoq=0.00 / no-rd-refine / no-lossless / cbqpoffs=0 / crqpoffs=0 / rc=crf / crf=20.0 / qcomp=0.60 / qpstep=4 / stats-write=0 / stats-read=0 / ipratio=1.40 / pbratio=1.30 / aq-mode=3 / aq-strength=0.80 / cutree / zone-count=0 / no-strict-cbr / qg-size=32 / no-rc-grain / qpmax=69 / qpmin=0 / no-const-vbv / sar=0 / overscan=0 / videoformat=5 / range=0 / colorprim=2 / transfer=2 / colormatrix=2 / chromaloc=0 / display-window=0 / max-cll=0,0 / min-luma=0 / max-luma=1023 / log2-max-poc-lsb=8 / vui-timing-info / vui-hrd-info / slices=1 / no-opt-qp-pps / no-opt-ref-list-length-pps / no-multi-pass-opt-rps / scenecut-bias=0.05 / no-opt-cu-delta-qp / no-aq-motion / no-hdr / no-hdr-opt / no-dhdr10-opt / no-idr-recovery-sei / analysis-reuse-level=5 / scale-factor=0 / refine-intra=0 / refine-inter=0 / refine-mv=0 / no-limit-sao / ctu-info=0 / no-lowpass-dct / refine-mv-type=0 / copy-pic=1 / max-ausize-factor=1.0 / no-dynamic-refine / no-single-sei
Default : Yes
Forced : No

Audio
ID : 2
Format : AAC
Format/Info : Advanced Audio Codec
Format profile : LC
Codec ID : A_AAC
Duration : 43 min 3 s
Bit rate : 448 kb/s
Channel(s) : 6 channels
Channel positions : Front: L C R, Side: L R, LFE
Sampling rate : 48.0 kHz
Frame rate : 46.875 FPS (1024 spf)
Compression mode : Lossy
Stream size : 138 MiB (17%)
Language : English
Default : Yes
Forced : Yes

Subtitle
ID : 3
Format : UTF-8
Codec ID : S_TEXT/UTF8
Codec ID/Info : UTF-8 Plain Text
Duration : 42 min 49 s
Bit rate : 112 b/s
Count of elements : 1187
Stream size : 35.1 KiB (0%)
Language : English
Default : No
Forced : No



Source Information

Code:

Release:
Amazon WEB-DL





Sharing Widget


No Comments For This Torrent . Be The First to Comment

You must Login to Comment . Click Here to Login

Menu 1

Some content in menu 1.

Grey's Anatomy (2005) S15E03 (1080p AMZN WEB-DL x265 HEVC 10bit AAC 5 (Size: 804.1 MB)
  Grey's Anatomy (2005) S15E03 (1080p AMZN WEB-DL x265 HEVC 10bit AAC 5 804.1 MB
tracker name
udp://tracker.leechers-paradise.org:6969/announce
udp://zer0day.ch:1337/announce
udp://open.demonii.com:1337/announce
udp://tracker.coppersurfer.tk:6969/announce
udp://exodus.desync.com:6969/announce
µTorrent compatible trackers list

Relative Torrents

Torrent Name Size Age SEED LEECH
RADIO ETHER PROGRAM 1,268 (GHOULISH ETHE)
Posted by    charlespoet   in   Music
426.7 MB 2 minutes 319 792
A Happening of Monumental Proportions (217) [WEBRip] [720p] [YTS] [YIFY]
Posted by    YTSAGx   in   Movies
685.9 MB 2 minutes 999 961
The Purge S01E08 1080p WEB x264-TBS[TGx]
Posted by    mazemaze16   in   TV
1.2 GB 3 minutes 324 840
Mysteries of the Abandoned S03E04 Underwter Ghost Prison WEBRip x264-CAFFEiNE[T
Posted by    mazemaze16   in   TV
506.4 MB 8 minutes 801 645
Mayans M C S01E08 WEBRip x264-TBS [eztv]
Posted by    EZTVag   in   TV
303.9 MB 8 minutes 970 636