Gotham (2014) Season 3 S03 (1080p BluRay Torrent Free Download

Seeders : 743   &   Leechers : 498      11-10-2018 (4 days)
Gotham (2014) Season 3 S03 (1080p BluRay Torrent Download
Added: ago by Vyndros ***** in TV   17.5 GB   Hits : 28
Info Hash: 2FE2452278C45F94651983CDF39402B8A0E2A895 Download
Gotham (2014) Season 3 S03 (1080p BluRay Torrent Download

Anonymous and Direct Download movies , software , shows...

Fast Safe Anonymous
movies, software, shows...
Gotham
Action /Crime /Drama  .   42 min   7.9/10
Director : N/A  
Writer: Bruno Heller  
Tags: Gotham  (2014)  Season  3  S03  (1080p  

Released:
22 Sep 2014
In crime ridden Gotham City, Thomas and Martha Wayne are murdered before young Bruce Wayne's eyes. Although the idealistic Gotham City Police Dept. detective James Gordon, and his cynical partner, Harvey Bullock, seem to solve the case quickly, things are not so si.... See More mple. Inspired by Bruce's traumatized desire for justice, Gordon vows to find it amid Gotham's corruption. Thus begins Gordon's lonely quest that would set him against his own comrades and the underworld with their own deadly rivalries and mysteries. In the coming wars, innocence will be lost and compromises will be made as some criminals will fall as casualties while others will rise as supervillains. All the while, young Bruce observes this war with a growing obsession that would one day drive him to seek his own justice against the evil of Gotham as The Batman.

Torrent Description


















Media Information

Code:

General
Format : Matroska
Format version : Version 4 / Version 2
File size : 856 MiB
Duration : 44 min 6 s
Overall bit rate : 2 712 kb/s
Encoded date : UTC 2018-10-08 11:16:12
Writing application : mkvmerge v20.0.0 ('I Am The Sun') 64-bit
Writing library : libebml v1.3.5 + libmatroska v1.4.8
Writing frontend : StaxRip v1.7.0.6

Video
ID : 1
Format : HEVC
Format/Info : High Efficiency Video Coding
Format profile : Main [email protected]@Main
Codec ID : V_MPEGH/ISO/HEVC
Duration : 44 min 6 s
Bit rate : 2 248 kb/s
Width : 1 920 pixels
Height : 1 080 pixels
Display aspect ratio : 16:9
Frame rate mode : Constant
Frame rate : 23.976 (24000/1001) FPS
Color space : YUV
Chroma subsampling : 4:2:0
Bit depth : 10 bits
Bits/(Pixel*Frame) : 0.045
Stream size : 709 MiB (83%)
Writing library : x265 2.8+57-eea92165b035:[Windows][GCC 7.3.0][64 bit] 10bit
Encoding settings : cpuid=1111039 / frame-threads=2 / numa-pools=4 / wpp / no-pmode / no-pme / no-psnr / ssim / log-level=2 / input-csp=1 / input-res=1920x1080 / interlace=0 / total-frames=63449 / level-idc=0 / high-tier=1 / uhd-bd=0 / ref=3 / no-allow-non-conformance / no-repeat-headers / annexb / no-aud / no-hrd / info / hash=0 / no-temporal-layers / open-gop / min-keyint=23 / keyint=250 / gop-lookahead=0 / bframes=8 / b-adapt=2 / b-pyramid / bframe-bias=0 / rc-lookahead=50 / lookahead-slices=6 / scenecut=40 / radl=0 / no-intra-refresh / ctu=64 / min-cu-size=8 / no-rect / no-amp / max-tu-size=32 / tu-inter-depth=1 / tu-intra-depth=1 / limit-tu=0 / rdoq-level=0 / dynamic-rd=0.00 / no-ssim-rd / signhide / no-tskip / nr-intra=0 / nr-inter=0 / no-constrained-intra / no-strong-intra-smoothing / max-merge=3 / limit-refs=3 / no-limit-modes / me=3 / subme=5 / merange=57 / temporal-mvp / weightp / no-weightb / no-analyze-src-pics / deblock=0:0 / sao / no-sao-non-deblock / rd=3 / no-early-skip / no-rskip / no-fast-intra / no-tskip-fast / no-cu-lossless / no-b-intra / no-splitrd-skip / rdpenalty=0 / psy-rd=2.00 / psy-rdoq=0.00 / no-rd-refine / no-lossless / cbqpoffs=0 / crqpoffs=0 / rc=crf / crf=20.0 / qcomp=0.60 / qpstep=4 / stats-write=0 / stats-read=0 / ipratio=1.40 / pbratio=1.30 / aq-mode=3 / aq-strength=1.00 / cutree / zone-count=0 / no-strict-cbr / qg-size=32 / no-rc-grain / qpmax=69 / qpmin=0 / no-const-vbv / sar=0 / overscan=0 / videoformat=5 / range=0 / colorprim=2 / transfer=2 / colormatrix=2 / chromaloc=0 / display-window=0 / max-cll=0,0 / min-luma=0 / max-luma=1023 / log2-max-poc-lsb=8 / vui-timing-info / vui-hrd-info / slices=1 / no-opt-qp-pps / no-opt-ref-list-length-pps / no-multi-pass-opt-rps / scenecut-bias=0.05 / no-opt-cu-delta-qp / no-aq-motion / no-hdr / no-hdr-opt / no-dhdr10-opt / no-idr-recovery-sei / analysis-reuse-level=5 / scale-factor=0 / refine-intra=0 / refine-inter=0 / refine-mv=0 / no-limit-sao / ctu-info=0 / no-lowpass-dct / refine-mv-type=0 / copy-pic=1 / max-ausize-factor=1.0 / no-dynamic-refine / no-single-sei
Default : Yes
Forced : No

Audio
ID : 2
Format : AAC
Format/Info : Advanced Audio Codec
Format profile : LC
Codec ID : A_AAC
Duration : 44 min 6 s
Bit rate : 448 kb/s
Channel(s) : 6 channels
Channel positions : Front: L C R, Side: L R, LFE
Sampling rate : 48.0 kHz
Frame rate : 46.875 FPS (1024 spf)
Compression mode : Lossy
Stream size : 141 MiB (17%)
Language : English
Default : Yes
Forced : No

Subtitle
ID : 3
Format : PGS
Muxing mode : zlib
Codec ID : S_HDMV/PGS
Codec ID/Info : Picture based subtitle format used on BDs/HD-DVDs
Duration : 44 min 2 s
Bit rate : 44.1 kb/s
Count of elements : 1499
Stream size : 13.9 MiB (2%)
Language : English
Default : No
Forced : No



Source Information

Code:

Release:
BluRay Remux




Sharing Widget


No Comments For This Torrent . Be The First to Comment

You must Login to Comment . Click Here to Login

Menu 1

Some content in menu 1.

Gotham (2014) Season 3 S03 (1080p BluRay x265 HEVC 10bit AAC 5 1 Vyndr (Size: 17.5 GB)
  Gotham (2014) Season 3 S03 (1080p BluRay x265 HEVC 10bit AAC 5 1 Vyndr 17.5 GB
tracker name
udp://tracker.leechers-paradise.org:6969/announce
udp://zer0day.ch:1337/announce
udp://open.demonii.com:1337/announce
udp://tracker.coppersurfer.tk:6969/announce
udp://exodus.desync.com:6969/announce
µTorrent compatible trackers list

Relative Torrents

Torrent Name Size Age SEED LEECH
Bob and the Monster 2011 1080p AMZN WEBRp DD2 0 x264-QOQ
Posted by    Trige   in   Movies
6.5 GB 1 minute 206 287
Darby OGill and the Little People 1959 180p WEBRip DD2 0 x264-SbR
Posted by    Trige   in   Movies
8.1 GB 4 minutes 793 887
The Dark Knight Rises (2012) Dual Audio Hindi 2 0 - English 2 0] 1 2GB ESubs
Posted by    KatMaster   in   Movies
1.2 GB 4 minutes 108 391
The Real Housewives of Orange County S1313 720p WEB x264-TBS [eztv]
Posted by    EZTVag   in   TV
823.0 MB 5 minutes 857 768
The Real Housewives of Orange County S1313 WEB x264-TBS[TGx]
Posted by    mazemaze16   in   TV
603.5 MB 5 minutes 704 341