Belle Et Sebastien 3 Le Dernier Chapitre Torrent Free Download

Seeders : 437   &   Leechers : 581      14-06-2018 (1 week)
Belle Et Sebastien 3 Le Dernier Chapitre Torrent Download
Added: ago by sarabayour ***** in Movies   3.1 GB   Hits : 14
Info Hash: 256C7FF6EEF2630BF76047312A82FCFEA6C4AA7A Download
Belle Et Sebastien 3 Le Dernier Chapitre Torrent Download

Anonymous and Direct Download movies , software , shows...

Fast Safe Anonymous
movies, software, shows...

Torrent Description




Belle et Sébastien 3 : le dernier chapitre
Qualité WEB-RiP 1080p | FRENCH





Origine

: français

Réalisation

: Clovis Cornillac

Acteur(s)

: Félix Bossuet, Tchéky Karyo, Thierry Neuvic

Genre

: Famille, Aventure

Durée

: 1h 30min

Date de sortie

: 14 février 2018

Année de production

: 2017

Distributeur

: Gaumont Distribution

Note spectateurs

: 4,0 /5(611 notes)




Deux ans ont passé. Sébastien est à l'aube de l'adolescence et Belle est
devenue maman de trois adorables chiots. Pierre et Angelina sont sur le
point de se marier et rêvent d'une nouvelle vie, ailleurs... Au grand
dam de Sébastien qui refuse de quitter sa montagne.Lorsque Joseph,
l'ancien maître de Belle, ressurgit bien décidé à récupérer sa chienne,
Sébastien se retrouve face à une terrible menace. Plus que jamais, il va
devoir tout mettre en œuvre pour protéger son amie et ses petits...



Qualité: WEB-RiP 1080p
Langue: FRENCH
Nombre de fichiers et tailles: 3x999 Mo et 1x205 Mo
Taille totale: 3.13 Go

Nom de la release :Belle.Et.Sebastien.3.Le.Dernier.Chapitre.2018.FRENCH.1080p.WEB.H264-PREUMS

Belle.Et.Sebastien.3.Le.Dernier.Chapitre.2018.FRENCH.1080p.WEB.H264-PREUMS.mkv
Format : Matroska
Format version : Version 4 / Version 2
File size : 3.13 GiB
Duration : 1 h 30 min
Overall bit rate : 4 940 kb/s
Movie name : release by PREUMS
Encoded date : UTC 2018-06-14 04:24:29
Writing application : mkvmerge v24.0.0 ('Beyond The Pale') 64-bit
Writing library : libebml v1.3.6 + libmatroska v1.4.9

Video
ID : 1
Format : AVC
Format/Info : Advanced Video Codec
Format profile : [email protected]
Format settings, CABAC : Yes
Format settings, ReFrames : 5 frames
Codec ID : V_MPEG4/ISO/AVC
Duration : 1 h 30 min
Bit rate : 4 555 kb/s
Width : 1 916 pixels
Height : 800 pixels
Display aspect ratio : 2.40:1
Frame rate mode : Constant
Frame rate : 24.000 FPS
Color space : YUV
Chroma subsampling : 4:2:0
Bit depth : 8 bits
Scan type : Progressive
Bits/(Pixel*Frame) : 0.124
Stream size : 2.88 GiB (92%)
Title : PREUMS
Language : French
Default : Yes
Forced : No
Color range : Limited
Color primaries : BT.709
Transfer characteristics : BT.709
Matrix coefficients : BT.709

Audio
ID : 2
Format : AC-3
Format/Info : Audio Coding 3
Mode extension : CM (complete main)
Format settings, Endianness : Big
Codec ID : A_AC3
Duration : 1 h 30 min
Bit rate mode : Constant
Bit rate : 384 kb/s
Channel(s) : 6 channels
Channel positions : Front: L C R, Side: L R, LFE
Sampling rate : 48.0 kHz
Frame rate : 31.250 FPS (1536 spf)
Bit depth : 16 bits
Compression mode : Lossy
Stream size : 249 MiB (8%)
Title : VF 5.1
Language : French
Default : Yes
Forced : No

Menu
00:00:00.000 : en:Chapitre 1
00:10:21.791 : en:Chapitre 2
00:19:20.916 : en:Chapitre 3
00:31:14.582 : en:Chapitre 4
00:39:19.373 : en:Chapitre 5
00:51:06.456 : en:Chapitre 6
01:00:32.164 : en:Chapitre 7
01:09:46.372 : en:Chapitre 8
01:19:02.663 : en:Chapitre 9
01:25:25.871 : en:Chapitre 10







Sharing Widget


No Comments For This Torrent . Be The First to Comment

You must Login to Comment . Click Here to Login

Menu 1

Some content in menu 1.

Belle Et Sebastien 3 Le Dernier Chapitre 2018 FRENCH 1080p WEB H264-PR (Size: 3.1 GB)
  Belle Et Sebastien 3 Le Dernier Chapitre 2018 FRENCH 1080p WEB H264-PR 3.1 GB
tracker name
udp://tracker.leechers-paradise.org:6969/announce
udp://zer0day.ch:1337/announce
udp://open.demonii.com:1337/announce
udp://tracker.coppersurfer.tk:6969/announce
udp://exodus.desync.com:6969/announce
µTorrent compatible trackers list

Relative Torrents

Torrent Name Size Age SEED LEECH
Une Histoire De Fou 2015 P BDRip 1080p mv
Posted by    iDope   in   Movies
10.9 GB 5 minutes 102 581
civil-war-guns-n-roses-cover-soundcloud p3
Posted by    iDope   in   Music
6.8 MB 5 minutes 507 431
[T-Zone] Duyen Troi Dinh E23 HD KITES VNmkv
Posted by    iDope   in   Video
873.3 MB 5 minutes 201 696
韩国招妓自拍 和前挺后撅的MM3P 韩国和身材苗条的长发女
Posted by    iDope   in   Video
496.4 MB 5 minutes 17 943
Mantera (2012) [720p] [BRRip] [XviD] [AC-H1] [Lektor PL]
Posted by    iDope   in   Movies
1.8 GB 5 minutes 950 660