Any Bullet Will Do 2018 720p WEB-DL DD 2 Torrent Free Download

Seeders : 386   &   Leechers : 684      15-09-2018 (2 months)
Any Bullet Will Do 2018 720p WEB-DL DD 2 Torrent Download
Added: ago by moviezworldz ***** in Movies   1.0 GB   Hits : 38
Info Hash: 8E46DEBDC9DAE79F00520025DD2807068F73FF0B Download
Any Bullet Will Do 2018 720p WEB-DL DD 2 Torrent Download

Anonymous and Direct Download movies , software , shows...

Fast Safe Anonymous
movies, software, shows...
Any Bullet Will Do
Western   .   110 min   4.4/10
Director : Justin Lee  
Writer: Justin Lee  
Tags: Any  Bullet  Will  Do  2018  720p  

Released:
04 Sep 2018
Taking place during 1876 in Montana, a ruthless headhunter tracks his own Brother through Big Sky country with the help of a young fur trapper.

Torrent Description







General
Format : Matroska
Format version : Version 4 / Version 2
File size : 1.03 GiB
Duration : 1 h 46 min
Overall bit rate : 1 383 kb/s

Video
ID : 1
Format : AVC
Format/Info : Advanced Video Codec
Format profile : [email protected]
Format settings : CABAC / 4 Ref Frames
Format settings, CABAC : Yes
Format settings, RefFrames : 4 frames
Codec ID : V_MPEG4/ISO/AVC
Duration : 1 h 46 min
Bit rate : 1 200 kb/s
Width : 1 280 pixels
Height : 528 pixels
Display aspect ratio : 2.40:1
Frame rate mode : Constant
Frame rate : 23.976 (24000/1001) FPS
Color space : YUV
Chroma subsampling : 4:2:0
Bit depth : 8 bits
Scan type : Progressive
Bits/(Pixel*Frame) : 0.074
Stream size : 910 MiB (86%)
Writing library : x264 core 155 r2901 7d0ff22
Default : Yes
Forced : No

Audio
ID : 2
Format : AC-3
Format/Info : Audio Coding 3
Codec ID : A_AC3
Duration : 1 h 46 min
Bit rate mode : Constant
Bit rate : 192 kb/s
Channel(s) : 2 channels
Channel positions : Front: L R
Sampling rate : 48.0 kHz
Frame rate : 31.250 FPS (1536 SPF)
Bit depth : 16 bits
Compression mode : Lossy
Stream size : 147 MiB (14%)
Language : English
Service kind : Complete Main
Default : Yes
Forced : No


Click To Enlarge Image










Sharing Widget


No Comments For This Torrent . Be The First to Comment

You must Login to Comment . Click Here to Login

Menu 1

Some content in menu 1.

Any Bullet Will Do 2018 720p WEB-DL DD 2 0 x264 [MW] (Size: 1.0 GB)
  Any Bullet Will Do 2018 720p WEB-DL DD 2 0 x264 [MW] 1.0 GB
tracker name
udp://tracker.leechers-paradise.org:6969/announce
udp://zer0day.ch:1337/announce
udp://open.demonii.com:1337/announce
udp://tracker.coppersurfer.tk:6969/announce
udp://exodus.desync.com:6969/announce
µTorrent compatible trackers list

Relative Torrents

Torrent Name Size Age SEED LEECH
Will and Grace S10E06 720p HDTV x264-KILERS
Posted by    Cristie   in   TV
412.8 MB 2 minutes 3 527
Will and Grace S10E06 XviD-AFG [eztv]
Posted by    EZTVag   in   TV
171.5 MB 2 minutes 158 771
Will and Grace S10E06 HDTV x264-KILLERS eztv]
Posted by    EZTVag   in   TV
117.8 MB 7 minutes 418 937
The Romanoffs S01E07 End of the Line 720 AMZN WEB-DL DDP5 1 H 264-NTG [eztv]
Posted by    EZTVag   in   TV
1.9 GB 7 minutes 472 890
Will and Grace S10E06 XviD-AFG[TGx]
Posted by    mazemaze16   in   TV
172.3 MB 7 minutes 105 969