Afraid 2018 DVDRip AAC 2 0 x264 [MW] Torrent Free Download

Seeders : 406   &   Leechers : 333      12-10-2018 (1 week)
Afraid 2018 DVDRip AAC 2 0 x264 [MW] Torrent Download
Added: ago by moviezworldz ***** in Movies   816.8 MB   Hits : 32
Info Hash: 1D96F57800D90552CC5580E2994D6F97C5540533 Download
Afraid 2018 DVDRip AAC 2 0 x264 [MW] Torrent Download

Anonymous and Direct Download movies , software , shows...

Fast Safe Anonymous
movies, software, shows...
Who's Afraid of Virginia Woolf?
Drama   .   131 min   8.1/10
Director : Mike Nichols  
Tags: Afraid  2018  DVDRip  AAC  2  0  

Released:
22 Jun 1966
George and Martha are a middle aged married couple, whose charged relationship is defined by vitriolic verbal battles, which underlies what seems like an emotional dependence upon each other. This verbal abuse is fueled by an excessive consumption of alcohol. Georg.... See More e being an associate History professor in a New Carthage university where Martha's father is the President adds an extra dimension to their relationship. Late one Saturday evening after a faculty mixer, Martha invites Nick and Honey, an ambitious young Biology professor new to the university and his mousy wife, over for a nightcap. As the evening progresses, Nick and Honey, plied with more alcohol, get caught up in George and Martha's games of needing to hurt each other and everyone around them. The ultimate abuse comes in the form of talk of George and Martha's unseen sixteen year old son, whose birthday is the following day.

Torrent Description







General
Format : Matroska
Format version : Version 4 / Version 2
File size : 817 MiB
Duration : 1 h 20 min
Overall bit rate : 1 423 kb/s

Video
ID : 1
Format : AVC
Format/Info : Advanced Video Codec
Format profile : [email protected]
Format settings : CABAC / 5 Ref Frames
Format settings, CABAC : Yes
Format settings, RefFrames : 5 frames
Codec ID : V_MPEG4/ISO/AVC
Duration : 1 h 20 min
Bit rate : 1 300 kb/s
Width : 720 pixels
Height : 400 pixels
Display aspect ratio : 16:9
Frame rate mode : Constant
Frame rate : 29.970 (30000/1001) FPS
Color space : YUV
Chroma subsampling : 4:2:0
Bit depth : 8 bits
Scan type : Progressive
Bits/(Pixel*Frame) : 0.151
Stream size : 743 MiB (91%)
Writing library : x264 core 155 r2901 7d0ff22
Default : Yes
Forced : No

Audio
ID : 2
Format : AAC
Format/Info : Advanced Audio Codec
Format profile : LC
Codec ID : A_AAC-2
Duration : 1 h 20 min
Bit rate : 125 kb/s
Channel(s) : 2 channels
Channel positions : Front: L R
Sampling rate : 48.0 kHz
Frame rate : 46.875 FPS (1024 SPF)
Compression mode : Lossy
Stream size : 72.0 MiB (9%)
Language : English
Default : Yes
Forced : No


Click To Enlarge Image










Sharing Widget


No Comments For This Torrent . Be The First to Comment

You must Login to Comment . Click Here to Login

Menu 1

Some content in menu 1.

Afraid 2018 DVDRip AAC 2 0 x264 [MW] (Size: 816.8 MB)
  Afraid 2018 DVDRip AAC 2 0 x264 [MW] 816.8 MB
tracker name
udp://tracker.leechers-paradise.org:6969/announce
udp://zer0day.ch:1337/announce
udp://open.demonii.com:1337/announce
udp://tracker.coppersurfer.tk:6969/announce
udp://exodus.desync.com:6969/announce
µTorrent compatible trackers list

Relative Torrents

Torrent Name Size Age SEED LEECH
Splitting Up Together S02E02 HDTV x264-SA [eztv]
Posted by    EZTVag   in   TV
155.2 MB 1 minute 32 816
All In with Chris Hayes 2018 10 22 720p EBRip x264-LM
Posted by    LarMer   in   TV
851.7 MB 1 minute 194 558
The Rachel Maddow Show 2018 10 22 720p WBRip x264-LM
Posted by    LarMer   in   TV
877.9 MB 1 minute 264 667
The Last Word with Lawrence O'Donnell 208 10 22 720p WEBRip x264-LM
Posted by    LarMer   in   TV
824.3 MB 1 minute 31 325
The 11th Hour with Brian Williams 2018 1 22 720p WEBRip x264-LM
Posted by    LarMer   in   TV
861.4 MB 1 minute 407 665