18+ Armed 2018 UNCENSORED Movies HDRip x Torrent Free Download

Seeders : 515   &   Leechers : 126      14-09-2018 (1 week)
18+ Armed 2018 UNCENSORED Movies HDRip x Torrent Download
Added: ago by nehalpuja ***** in Movies   845.5 MB   Hits : 20
Info Hash: 4F6F2B4F7B7206BB810603C29C6E5E1BDE5E3A2E Download
18+ Armed 2018 UNCENSORED Movies HDRip x Torrent Download

Anonymous and Direct Download movies , software , shows...

Fast Safe Anonymous
movies, software, shows...

Torrent Description



18+ Armed 2018 UNCENSORED Movies HDRip x264 5.1 with Sample ☻rDX☻
===============================================================================================

SCREEN SHOTS:



or

http://iphonehosting.eu/2018/9/investment/1.html

File size : 838 MiB
Duration : 2 h 0 min
Overall bit rate mode : Constant
Overall bit rate : 976 kb/s
Movie name : 18+ Armed 2018 UNCENSORED Movies HDRip x264 5.1 ☻rDX☻

Video
ID : 2
Format : AVC
Format/Info : Advanced Video Codec
Format profile : [email protected]
Format settings, CABAC : Yes
Format settings, ReFrames : 2 frames
Format settings, GOP : M=1, N=12
Codec ID : V_MPEG4/ISO/AVC
Duration : 2 h 0 min
Bit rate mode : Constant
Bit rate : 593 kb/s
Width : 720 pixels
Height : 304 pixels
Display aspect ratio : 2.35:1
Frame rate mode : Constant
Frame rate : 23.976 FPS
Color space : YUV
Chroma subsampling : 4:2:0
Bit depth : 8 bits
Scan type : Progressive
Bits/(Pixel*Frame) : 0.113
Stream size : 492 MiB (59%)
Title : ☻rDX☻
Default : Yes
Forced : No

Audio
ID : 1
Format : AC-3
Format/Info : Audio Coding 3
Mode extension : CM (complete main)
Format settings, Endianness : Big
Codec ID : A_AC3
Duration : 2 h 0 min
Bit rate mode : Constant
Bit rate : 384 kb/s
Channel(s) : 6 channels
Channel positions : Front: L C R, Side: L R, LFE
Sampling rate : 48.0 kHz
Frame rate : 31.250 FPS (1536 spf)
Bit depth : 16 bits
Compression mode : Lossy
Stream size : 330 MiB (39%)
Title : ☻rDX☻
Default : Yes
Forced : No

http://www.imdb.com/title/tt4824316




Sharing Widget


No Comments For This Torrent . Be The First to Comment

You must Login to Comment . Click Here to Login

Menu 1

Some content in menu 1.

18+ Armed 2018 UNCENSORED Movies HDRip x264 5 1 with Sample ☻rDX☻ (Size: 845.5 MB)
  18+ Armed 2018 UNCENSORED Movies HDRip x264 5 1 with Sample ☻rDX☻ 845.5 MB
tracker name
udp://tracker.leechers-paradise.org:6969/announce
udp://zer0day.ch:1337/announce
udp://open.demonii.com:1337/announce
udp://tracker.coppersurfer.tk:6969/announce
udp://exodus.desync.com:6969/announce
µTorrent compatible trackers list

Relative Torrents

Torrent Name Size Age SEED LEECH
MoviezBaba Com-Fantastic Four (1994-2015 Collection 720p BluRay Dual Audio Hind
Posted by    likuaba   in   Movies
3.6 GB 14 seconds 213 227
Dakar 18-CODEX
Posted by    SyMeTrYcZnY   in   Games
38.8 GB 3 minutes 665 786
Bad Stepmother 2018 Movies DVDRip x264 51 with Sample ☻rDX☻
Posted by    nehalpuja   in   Movies
1,014.8 MB 3 minutes 730 552
[18+] Mommy Does It Better (2018) Englis WEBRip x264 AAC 500MB
Posted by    220x   in   Movies
559.4 MB 3 minutes 116 884
American Sniper 2014 (1080p)
Posted by    guiuli   in   Movies
2.4 GB 9 minutes 802 447