18+ Apostle 2018 Movies HDRip x264 AAC w Torrent Free Download

Seeders : 573   &   Leechers : 318      12-10-2018 (3 days)
18+ Apostle 2018 Movies HDRip x264 AAC w Torrent Download
Added: ago by nehalpuja ***** in Movies   705.3 MB   Hits : 21
Info Hash: 12AC64100C7118D08D712BE2E3DAD4435A5F41DE Download
18+ Apostle 2018 Movies HDRip x264 AAC w Torrent Download

Anonymous and Direct Download movies , software , shows...

Fast Safe Anonymous
movies, software, shows...

Torrent Description



18+ Apostle 2018 Movies HDRip x264 AAC with Sample ☻rDX☻
===============================================================================================

SCREEN SHOTS:



or

http://iphonehosting.eu/2018/10/quality/1.html

File size : 699 MiB
Duration : 2 h 10 min
Overall bit rate mode : Constant
Overall bit rate : 751 kb/s
Movie name : 18+ Apostle 2018 Movies HDRip x264 AAC ☻rDX☻

Video
ID : 2
Format : AVC
Format/Info : Advanced Video Codec
Format profile : [email protected]
Format settings, CABAC : Yes
Format settings, ReFrames : 2 frames
Format settings, GOP : M=1, N=12
Codec ID : V_MPEG4/ISO/AVC
Duration : 2 h 10 min
Bit rate mode : Constant
Bit rate : 688 kb/s
Width : 720 pixels
Height : 304 pixels
Display aspect ratio : 2.35:1
Frame rate mode : Constant
Frame rate : 24.000 FPS
Color space : YUV
Chroma subsampling : 4:2:0
Bit depth : 8 bits
Scan type : Progressive
Bits/(Pixel*Frame) : 0.131
Stream size : 625 MiB (89%)
Title : ☻rDX☻
Default : Yes
Forced : No

Audio
ID : 1
Format : MPEG Audio
Format version : Version 1
Format profile : Layer 3
Mode : Joint stereo
Mode extension : MS Stereo
Codec ID : A_MPEG/L3
Codec ID/Hint : MP3
Duration : 2 h 10 min
Bit rate mode : Constant
Bit rate : 64.0 kb/s
Channel(s) : 2 channels
Sampling rate : 44.1 kHz
Compression mode : Lossy
Stream size : 59.5 MiB (9%)
Title : ☻rDX☻
Default : Yes
Forced : No

http://www.imdb.com/title/tt6217306




Sharing Widget


No Comments For This Torrent . Be The First to Comment

You must Login to Comment . Click Here to Login

Menu 1

Some content in menu 1.

18+ Apostle 2018 Movies HDRip x264 AAC with Sample ☻rDX☻ (Size: 705.3 MB)
  18+ Apostle 2018 Movies HDRip x264 AAC with Sample ☻rDX☻ 705.3 MB
tracker name
udp://tracker.leechers-paradise.org:6969/announce
udp://zer0day.ch:1337/announce
udp://open.demonii.com:1337/announce
udp://tracker.coppersurfer.tk:6969/announce
udp://exodus.desync.com:6969/announce
µTorrent compatible trackers list

Relative Torrents

Torrent Name Size Age SEED LEECH
Goosebumps 2 Haunted Halloween 2018 NEW 20p TS-1XBET[TGx]
Posted by    mazemaze16   in   Movies
2.4 GB 13 seconds 819 812
Slender Man 2018 1080p BluRay x264-DRONE[TGx]
Posted by    mazemaze16   in   Movies
6.6 GB 3 minutes 855 213
Leatherheads 2008 1080p BluRay H264 AAC
Posted by    Trige   in   Movies
2.2 GB 3 minutes 937 318
Slender Man 2018 1080p BluRay x264-DRONE[EtHD]
Posted by    EtHD   in   Movies
6.7 GB 3 minutes 198 849
The Daily Show 2018 10 15 Amandla Stenbeg EXTENDED 720p WEB x264-TBS[TGx]
Posted by    mazemaze16   in   TV
373.8 MB 9 minutes 950 124