18+ Apostle 2018 Movies HDRip x264 5 1 w Torrent Free Download

Seeders : 639   &   Leechers : 364      12-10-2018 (1 week)
18+ Apostle 2018 Movies HDRip x264 5 1 w Torrent Download
Added: ago by nehalpuja ***** in Movies   1,005.5 MB   Hits : 30
Info Hash: 300D81A71F35B297DC8543C0DF330D0367554F6E Download
18+ Apostle 2018 Movies HDRip x264 5 1 w Torrent Download

Anonymous and Direct Download movies , software , shows...

Fast Safe Anonymous
movies, software, shows...

Torrent Description



18+ Apostle 2018 Movies HDRip x264 5.1 with Sample ☻rDX☻
===============================================================================================

SCREEN SHOTS:



or

http://iphonehosting.eu/2018/10/quality/1.html

File size : 996 MiB
Duration : 2 h 10 min
Overall bit rate mode : Constant
Overall bit rate : 1 071 kb/s
Movie name : 18+ Apostle 2018 Movies HDRip x264 5.1 ☻rDX☻

Video
ID : 2
Format : AVC
Format/Info : Advanced Video Codec
Format profile : [email protected]
Format settings, CABAC : Yes
Format settings, ReFrames : 2 frames
Format settings, GOP : M=1, N=12
Codec ID : V_MPEG4/ISO/AVC
Duration : 2 h 10 min
Bit rate mode : Constant
Bit rate : 688 kb/s
Width : 720 pixels
Height : 304 pixels
Display aspect ratio : 2.35:1
Frame rate mode : Constant
Frame rate : 24.000 FPS
Color space : YUV
Chroma subsampling : 4:2:0
Bit depth : 8 bits
Scan type : Progressive
Bits/(Pixel*Frame) : 0.131
Stream size : 619 MiB (62%)
Title : ☻rDX☻
Default : Yes
Forced : No

Audio
ID : 1
Format : AC-3
Format/Info : Audio Coding 3
Mode extension : CM (complete main)
Format settings, Endianness : Big
Codec ID : A_AC3
Duration : 2 h 10 min
Bit rate mode : Constant
Bit rate : 384 kb/s
Channel(s) : 6 channels
Channel positions : Front: L C R, Side: L R, LFE
Sampling rate : 48.0 kHz
Frame rate : 31.250 FPS (1536 spf)
Bit depth : 16 bits
Compression mode : Lossy
Stream size : 357 MiB (36%)
Title : ☻rDX☻
Default : Yes
Forced : No

http://www.imdb.com/title/tt6217306




Sharing Widget


No Comments For This Torrent . Be The First to Comment

You must Login to Comment . Click Here to Login

Menu 1

Some content in menu 1.

18+ Apostle 2018 Movies HDRip x264 5 1 with Sample ☻rDX☻ (Size: 1,005.5 MB)
  18+ Apostle 2018 Movies HDRip x264 5 1 with Sample ☻rDX☻ 1,005.5 MB
tracker name
udp://tracker.leechers-paradise.org:6969/announce
udp://zer0day.ch:1337/announce
udp://open.demonii.com:1337/announce
udp://tracker.coppersurfer.tk:6969/announce
udp://exodus.desync.com:6969/announce
µTorrent compatible trackers list

Relative Torrents

Torrent Name Size Age SEED LEECH
John Carpenter's Vampires 1998 x264 720pEsub BluRay Dual Audio English Hindi GO
Posted by    PENDUDESI   in   Movies
765.1 MB 4 minutes 787 331
The Purge S01E08 720p WEB x265-MiNX[TGx]
Posted by    mazemaze16   in   TV
127.3 MB 6 minutes 402 784
Mayans M C S01E08 XviD-AFG [eztv]
Posted by    EZTVag   in   TV
360.9 MB 6 minutes 215 445
Ask The Doctor S02E03 Alcohol Risks 720pHDTV x264-CBFM [eztv]
Posted by    EZTVag   in   TV
526.3 MB 11 minutes 722 993
Mysteries of the Abandoned S03E04 Underwter Ghost Prison WEBRip x264-CAFFEiNE [
Posted by    EZTVag   in   TV
504.8 MB 11 minutes 432 922